  0
SECTION
  2
HEADER
  9
$ACADVER
  1
AC1015
  9
$ACADMAINTVER
 70
    20
  9
$DWGCODEPAGE
  3
ANSI_932
  9
$INSBASE
 10
0.0
 20
0.0
 30
0.0
  9
$EXTMIN
 10
28.18042260672689
 20
43.9974659694501
 30
0.0
  9
$EXTMAX
 10
864.3343855149632
 20
635.2777683117048
 30
0.0
  9
$LIMMIN
 10
0.0
 20
0.0
  9
$LIMMAX
 10
420.0
 20
297.0
  9
$ORTHOMODE
 70
     0
  9
$REGENMODE
 70
     1
  9
$FILLMODE
 70
     1
  9
$QTEXTMODE
 70
     0
  9
$MIRRTEXT
 70
     0
  9
$LTSCALE
 40
1.0
  9
$ATTMODE
 70
     1
  9
$TEXTSIZE
 40
2.5
  9
$TRACEWID
 40
1.0
  9
$TEXTSTYLE
  7
Standard
  9
$CLAYER
  8
0
  9
$CELTYPE
  6
ByLayer
  9
$CECOLOR
 62
   256
  9
$CELTSCALE
 40
1.0
  9
$DISPSILH
 70
     0
  9
$DIMSCALE
 40
1.0
  9
$DIMASZ
 40
2.5
  9
$DIMEXO
 40
0.625
  9
$DIMDLI
 40
3.75
  9
$DIMRND
 40
0.0
  9
$DIMDLE
 40
0.0
  9
$DIMEXE
 40
1.25
  9
$DIMTP
 40
0.0
  9
$DIMTM
 40
0.0
  9
$DIMTXT
 40
2.5
  9
$DIMCEN
 40
2.5
  9
$DIMTSZ
 40
0.0
  9
$DIMTOL
 70
     0
  9
$DIMLIM
 70
     0
  9
$DIMTIH
 70
     0
  9
$DIMTOH
 70
     0
  9
$DIMSE1
 70
     0
  9
$DIMSE2
 70
     0
  9
$DIMTAD
 70
     1
  9
$DIMZIN
 70
     8
  9
$DIMBLK
  1

  9
$DIMASO
 70
     1
  9
$DIMSHO
 70
     1
  9
$DIMPOST
  1

  9
$DIMAPOST
  1

  9
$DIMALT
 70
     0
  9
$DIMALTD
 70
     3
  9
$DIMALTF
 40
0.03937007874016
  9
$DIMLFAC
 40
1.0
  9
$DIMTOFL
 70
     1
  9
$DIMTVP
 40
0.0
  9
$DIMTIX
 70
     0
  9
$DIMSOXD
 70
     0
  9
$DIMSAH
 70
     0
  9
$DIMBLK1
  1

  9
$DIMBLK2
  1

  9
$DIMSTYLE
  2
ISO-25
  9
$DIMCLRD
 70
     0
  9
$DIMCLRE
 70
     0
  9
$DIMCLRT
 70
     0
  9
$DIMTFAC
 40
1.0
  9
$DIMGAP
 40
0.625
  9
$DIMJUST
 70
     0
  9
$DIMSD1
 70
     0
  9
$DIMSD2
 70
     0
  9
$DIMTOLJ
 70
     0
  9
$DIMTZIN
 70
     8
  9
$DIMALTZ
 70
     0
  9
$DIMALTTZ
 70
     0
  9
$DIMUPT
 70
     0
  9
$DIMDEC
 70
     2
  9
$DIMTDEC
 70
     2
  9
$DIMALTU
 70
     2
  9
$DIMALTTD
 70
     3
  9
$DIMTXSTY
  7
Standard
  9
$DIMAUNIT
 70
     0
  9
$DIMADEC
 70
     0
  9
$DIMALTRND
 40
0.0
  9
$DIMAZIN
 70
     0
  9
$DIMDSEP
 70
    44
  9
$DIMATFIT
 70
     3
  9
$DIMFRAC
 70
     0
  9
$DIMLDRBLK
  1

  9
$DIMLUNIT
 70
     2
  9
$DIMLWD
 70
    -2
  9
$DIMLWE
 70
    -2
  9
$DIMTMOVE
 70
     0
  9
$LUNITS
 70
     2
  9
$LUPREC
 70
     4
  9
$SKETCHINC
 40
1.0
  9
$FILLETRAD
 40
0.0
  9
$AUNITS
 70
     0
  9
$AUPREC
 70
     0
  9
$MENU
  1
.
  9
$ELEVATION
 40
0.0
  9
$PELEVATION
 40
0.0
  9
$THICKNESS
 40
0.0
  9
$LIMCHECK
 70
     0
  9
$CHAMFERA
 40
0.0
  9
$CHAMFERB
 40
0.0
  9
$CHAMFERC
 40
0.0
  9
$CHAMFERD
 40
0.0
  9
$SKPOLY
 70
     0
  9
$TDCREATE
 40
2456987.671686551
  9
$TDUCREATE
 40
2456987.296686551
  9
$TDUPDATE
 40
2456987.671865405
  9
$TDUUPDATE
 40
2456987.296865405
  9
$TDINDWG
 40
0.0001826620
  9
$TDUSRTIMER
 40
0.0001826620
  9
$USRTIMER
 70
     1
  9
$ANGBASE
 50
0.0
  9
$ANGDIR
 70
     0
  9
$PDMODE
 70
     0
  9
$PDSIZE
 40
0.0
  9
$PLINEWID
 40
0.0
  9
$SPLFRAME
 70
     0
  9
$SPLINETYPE
 70
     6
  9
$SPLINESEGS
 70
     8
  9
$HANDSEED
  5
867
  9
$SURFTAB1
 70
     6
  9
$SURFTAB2
 70
     6
  9
$SURFTYPE
 70
     6
  9
$SURFU
 70
     6
  9
$SURFV
 70
     6
  9
$UCSBASE
  2

  9
$UCSNAME
  2

  9
$UCSORG
 10
0.0
 20
0.0
 30
0.0
  9
$UCSXDIR
 10
1.0
 20
0.0
 30
0.0
  9
$UCSYDIR
 10
0.0
 20
1.0
 30
0.0
  9
$UCSORTHOREF
  2

  9
$UCSORTHOVIEW
 70
     0
  9
$UCSORGTOP
 10
0.0
 20
0.0
 30
0.0
  9
$UCSORGBOTTOM
 10
0.0
 20
0.0
 30
0.0
  9
$UCSORGLEFT
 10
0.0
 20
0.0
 30
0.0
  9
$UCSORGRIGHT
 10
0.0
 20
0.0
 30
0.0
  9
$UCSORGFRONT
 10
0.0
 20
0.0
 30
0.0
  9
$UCSORGBACK
 10
0.0
 20
0.0
 30
0.0
  9
$PUCSBASE
  2

  9
$PUCSNAME
  2

  9
$PUCSORG
 10
0.0
 20
0.0
 30
0.0
  9
$PUCSXDIR
 10
1.0
 20
0.0
 30
0.0
  9
$PUCSYDIR
 10
0.0
 20
1.0
 30
0.0
  9
$PUCSORTHOREF
  2

  9
$PUCSORTHOVIEW
 70
     0
  9
$PUCSORGTOP
 10
0.0
 20
0.0
 30
0.0
  9
$PUCSORGBOTTOM
 10
0.0
 20
0.0
 30
0.0
  9
$PUCSORGLEFT
 10
0.0
 20
0.0
 30
0.0
  9
$PUCSORGRIGHT
 10
0.0
 20
0.0
 30
0.0
  9
$PUCSORGFRONT
 10
0.0
 20
0.0
 30
0.0
  9
$PUCSORGBACK
 10
0.0
 20
0.0
 30
0.0
  9
$USERI1
 70
     0
  9
$USERI2
 70
     0
  9
$USERI3
 70
     0
  9
$USERI4
 70
     0
  9
$USERI5
 70
     0
  9
$USERR1
 40
0.0
  9
$USERR2
 40
0.0
  9
$USERR3
 40
0.0
  9
$USERR4
 40
0.0
  9
$USERR5
 40
0.0
  9
$WORLDVIEW
 70
     1
  9
$SHADEDGE
 70
     3
  9
$SHADEDIF
 70
    70
  9
$TILEMODE
 70
     1
  9
$MAXACTVP
 70
    64
  9
$PINSBASE
 10
0.0
 20
0.0
 30
0.0
  9
$PLIMCHECK
 70
     0
  9
$PEXTMIN
 10
0.0
 20
0.0
 30
0.0
  9
$PEXTMAX
 10
0.0
 20
0.0
 30
0.0
  9
$PLIMMIN
 10
0.0
 20
0.0
  9
$PLIMMAX
 10
12.0
 20
9.0
  9
$UNITMODE
 70
     0
  9
$VISRETAIN
 70
     1
  9
$PLINEGEN
 70
     0
  9
$PSLTSCALE
 70
     1
  9
$TREEDEPTH
 70
  3020
  9
$CMLSTYLE
  2
Standard
  9
$CMLJUST
 70
     0
  9
$CMLSCALE
 40
20.0
  9
$PROXYGRAPHICS
 70
     1
  9
$MEASUREMENT
 70
     1
  9
$CELWEIGHT
370
    -1
  9
$ENDCAPS
280
     0
  9
$JOINSTYLE
280
     0
  9
$LWDISPLAY
290
     0
  9
$INSUNITS
 70
     4
  9
$HYPERLINKBASE
  1

  9
$STYLESHEET
  1

  9
$XEDIT
290
     1
  9
$CEPSNTYPE
380
     0
  9
$PSTYLEMODE
290
     1
  9
$FINGERPRINTGUID
  2
{C23EF7E6-FB69-4D70-8FA2-2359B0C3CFC4}
  9
$VERSIONGUID
  2
{FB78F66F-3B4E-4535-89F5-8A0564431ED1}
  9
$EXTNAMES
290
     1
  9
$PSVPSCALE
 40
0.0
  9
$OLESTARTUP
290
     0
  0
ENDSEC
  0
SECTION
  2
CLASSES
  0
CLASS
  1
ACDBDICTIONARYWDFLT
  2
AcDbDictionaryWithDefault
  3
ObjectDBX Classes
 90
        0
280
     0
281
     0
  0
CLASS
  1
DICTIONARYVAR
  2
AcDbDictionaryVar
  3
ObjectDBX Classes
 90
        0
280
     0
281
     0
  0
CLASS
  1
TABLESTYLE
  2
AcDbTableStyle
  3
ObjectDBX Classes
 90
     4095
280
     0
281
     0
  0
CLASS
  1
MATERIAL
  2
AcDbMaterial
  3
ObjectDBX Classes
 90
     1024
280
     0
281
     0
  0
CLASS
  1
VISUALSTYLE
  2
AcDbVisualStyle
  3
ObjectDBX Classes
 90
     4095
280
     0
281
     0
  0
CLASS
  1
DIMASSOC
  2
AcDbDimAssoc
  3
"AcDbDimAssoc|Product Desc:     AcDim ARX App For Dimension|Company:          Autodesk, Inc.|WEB Address:      www.autodesk.com"
 90
        0
280
     0
281
     0
  0
CLASS
  1
ACDBPLACEHOLDER
  2
AcDbPlaceHolder
  3
ObjectDBX Classes
 90
        0
280
     0
281
     0
  0
CLASS
  1
LAYOUT
  2
AcDbLayout
  3
ObjectDBX Classes
 90
        0
280
     0
281
     0
  0
ENDSEC
  0
SECTION
  2
TABLES
  0
TABLE
  2
VPORT
  5
8
330
0
100
AcDbSymbolTable
 70
     1
  0
VPORT
  5
ED
330
8
100
AcDbSymbolTableRecord
100
AcDbViewportTableRecord
  2
*Active
 70
     0
 10
0.0
 20
0.0
 11
1.0
 21
1.0
 12
436.4701000212725
 22
279.5683591799075
 13
0.0
 23
0.0
 14
10.0
 24
10.0
 15
10.0
 25
10.0
 16
0.0
 26
0.0
 36
1.0
 17
0.0
 27
0.0
 37
0.0
 40
817.7141462065335
 41
1.470674486803519
 42
50.0
 43
0.0
 44
0.0
 50
0.0
 51
0.0
 71
     0
 72
  1000
 73
     1
 74
     3
 75
     0
 76
     0
 77
     0
 78
     0
281
     0
 65
     1
110
0.0
120
0.0
130
0.0
111
1.0
121
0.0
131
0.0
112
0.0
122
1.0
132
0.0
 79
     0
146
0.0
  0
ENDTAB
  0
TABLE
  2
LTYPE
  5
5
330
0
100
AcDbSymbolTable
 70
     2
  0
LTYPE
  5
14
330
5
100
AcDbSymbolTableRecord
100
AcDbLinetypeTableRecord
  2
ByBlock
 70
     0
  3

 72
    65
 73
     0
 40
0.0
  0
LTYPE
  5
15
330
5
100
AcDbSymbolTableRecord
100
AcDbLinetypeTableRecord
  2
ByLayer
 70
     0
  3

 72
    65
 73
     0
 40
0.0
  0
LTYPE
  5
16
330
5
100
AcDbSymbolTableRecord
100
AcDbLinetypeTableRecord
  2
Continuous
 70
     0
  3
Solid line
 72
    65
 73
     0
 40
0.0
  0
LTYPE
  5
290
330
5
100
AcDbSymbolTableRecord
100
AcDbLinetypeTableRecord
  2
CENTER
 70
     0
  3
____ _ ____ _ ____ _ ____ _ ____ _ ____ _ ____
 72
    65
 73
     4
 40
0.6
 49
0.375
 74
     0
 49
-0.075
 74
     0
 49
0.075
 74
     0
 49
-0.075
 74
     0
  0
ENDTAB
  0
TABLE
  2
LAYER
  5
2
102
{ACAD_XDICTIONARY
360
297
102
}
330
0
100
AcDbSymbolTable
 70
     3
  0
LAYER
  5
10
330
2
100
AcDbSymbolTableRecord
100
AcDbLayerTableRecord
  2
0
 70
     0
 62
     7
  6
Continuous
370
    -3
390
F
  0
LAYER
  5
291
330
2
100
AcDbSymbolTableRecord
100
AcDbLayerTableRecord
  2
Defpoints
 70
     0
 62
     7
  6
Continuous
290
     0
370
    -3
390
F
  0
LAYER
  5
292
330
2
100
AcDbSymbolTableRecord
100
AcDbLayerTableRecord
  2
1
 70
     0
 62
     7
  6
Continuous
370
    13
390
F
1001
AcAecLayerStandard
1000

1000

  0
ENDTAB
  0
TABLE
  2
STYLE
  5
3
330
0
100
AcDbSymbolTable
 70
     2
  0
STYLE
  5
11
330
3
100
AcDbSymbolTableRecord
100
AcDbTextStyleTableRecord
  2
Standard
 70
     0
 40
0.0
 41
1.0
 50
0.0
 71
     0
 42
2.5
  3
txt.shx
  4
extfont2.shx
  0
STYLE
  5
293
330
3
100
AcDbSymbolTableRecord
100
AcDbTextStyleTableRecord
  2
\U+6837式 1
 70
     0
 40
0.0
 41
1.0
 50
0.0
 71
     0
 42
0.2
  3
MS PGothic.ttf
  4

1001
ACAD
1000
MS PGothic
1071
    32818
1001
AcadStringInfo
1000
MIFCodePage
1070
     5
  0
ENDTAB
  0
TABLE
  2
VIEW
  5
6
330
0
100
AcDbSymbolTable
 70
     0
  0
ENDTAB
  0
TABLE
  2
UCS
  5
7
330
0
100
AcDbSymbolTable
 70
     0
  0
ENDTAB
  0
TABLE
  2
APPID
  5
9
330
0
100
AcDbSymbolTable
 70
     6
  0
APPID
  5
12
330
9
100
AcDbSymbolTableRecord
100
AcDbRegAppTableRecord
  2
ACAD
 70
     0
  0
APPID
  5
9E
330
9
100
AcDbSymbolTableRecord
100
AcDbRegAppTableRecord
  2
ACAD_PSEXT
 70
     0
  0
APPID
  5
295
330
9
100
AcDbSymbolTableRecord
100
AcDbRegAppTableRecord
  2
AcAecLayerStandard
 70
     0
  0
APPID
  5
296
330
9
100
AcDbSymbolTableRecord
100
AcDbRegAppTableRecord
  2
AcadStringInfo
 70
     0
  0
APPID
  5
865
330
9
100
AcDbSymbolTableRecord
100
AcDbRegAppTableRecord
  2
ACAD_DSTYLE_DIMEXT_LENGTH
 70
     0
  0
APPID
  5
866
330
9
100
AcDbSymbolTableRecord
100
AcDbRegAppTableRecord
  2
ACAD_DSTYLE_DIMJOGGED_JOGANGLE_SYMBOL
 70
     0
  0
ENDTAB
  0
TABLE
  2
DIMSTYLE
  5
A
330
0
100
AcDbSymbolTable
 70
     2
100
AcDbDimStyleTable
 71
     1
340
27
  0
DIMSTYLE
105
27
330
A
100
AcDbSymbolTableRecord
100
AcDbDimStyleTableRecord
  2
ISO-25
 70
     0
 41
2.5
 42
0.625
 43
3.75
 44
1.25
 73
     0
 74
     0
 77
     1
 78
     8
140
2.5
141
2.5
143
0.03937007874016
147
0.625
171
     3
172
     1
271
     2
272
     2
274
     3
278
    44
283
     0
284
     8
340
11
  0
DIMSTYLE
105
294
102
{ACAD_REACTORS
330
3AF
330
3B2
330
3B3
330
3B4
330
3B5
330
3B6
330
3B7
330
3B8
330
3E0
330
3E1
330
3E4
330
3E7
330
3ED
330
3F0
330
3F3
330
3F6
330
3F7
330
3F8
330
3FB
330
3FE
330
401
330
404
330
407
330
408
330
409
330
40A
330
40D
330
40E
330
40F
330
456
330
58E
330
591
330
592
330
593
330
594
330
595
330
596
330
597
330
5BF
330
5C0
330
5C3
330
5C6
330
5CC
330
5CF
330
5D2
330
5D5
330
5D6
330
5D7
330
5DA
330
5DD
330
5E0
330
5E3
330
5E6
330
5E7
330
5E8
330
5E9
330
5EC
330
5ED
330
5EE
330
635
102
}
330
A
100
AcDbSymbolTableRecord
100
AcDbDimStyleTableRecord
  2
sunopo　2
 70
     0
 41
8.0
 42
5.0
 43
1.0
 44
1.0
 47
0.01
 48
0.01
 73
     0
 74
     0
 77
     2
 78
     8
140
8.0
141
0.0
147
4.0
271
     2
272
     2
284
     8
340
293
341
116
342
116
1001
ACAD_DSTYLE_DIMEXT_LENGTH
1070
   378
1040
0.18
1001
ACAD_DSTYLE_DIMJOGGED_JOGANGLE_SYMBOL
1070
   384
1040
1.570796326794896
  0
ENDTAB
  0
TABLE
  2
BLOCK_RECORD
  5
1
330
0
100
AcDbSymbolTable
 70
    63
  0
BLOCK_RECORD
  5
1F
330
1
100
AcDbSymbolTableRecord
100
AcDbBlockTableRecord
  2
*Model_Space
340
22
  0
BLOCK_RECORD
  5
D2
330
1
100
AcDbSymbolTableRecord
100
AcDbBlockTableRecord
  2
*Paper_Space
340
D3
  0
BLOCK_RECORD
  5
D6
330
1
100
AcDbSymbolTableRecord
100
AcDbBlockTableRecord
  2
*Paper_Space0
340
D7
  0
BLOCK_RECORD
  5
116
330
1
100
AcDbSymbolTableRecord
100
AcDbBlockTableRecord
  2
_Open30
340
0
102
{BLKREFS
331
1D9
331
1DA
331
121
331
122
331
12E
331
12F
331
13A
331
13B
331
147
331
148
331
154
331
155
331
160
331
161
331
16C
331
16D
331
178
331
179
331
1E5
331
1E6
331
1F2
331
1F3
331
1FE
331
1FF
331
20A
331
20B
331
217
331
218
331
224
331
225
331
184
331
185
331
190
331
191
331
231
331
232
331
23D
331
23E
331
249
331
24A
331
255
331
256
331
263
331
264
331
19C
331
19D
331
1A9
331
1AA
331
1B5
331
1B6
331
26F
331
270
331
1C1
331
1C2
331
1CD
331
1CE
331
27B
331
27C
331
287
331
288
331
70F
331
710
331
71A
331
71B
331
724
331
725
331
72D
331
72E
331
737
331
738
331
741
331
742
331
74A
331
74B
331
753
331
754
331
75C
331
75D
331
766
331
767
331
773
331
774
331
77F
331
780
331
78B
331
78C
331
798
331
799
331
7A5
331
7A6
331
7B0
331
7B1
331
7B9
331
7BA
331
7C4
331
7C5
331
7D0
331
7D1
331
7DC
331
7DD
331
7E8
331
7E9
331
7F6
331
7F7
331
801
331
802
331
80B
331
80C
331
814
331
815
331
81E
331
81F
331
829
331
82A
331
832
331
833
331
83C
331
83D
331
848
331
849
102
}
  0
BLOCK_RECORD
  5
11C
330
1
100
AcDbSymbolTableRecord
100
AcDbBlockTableRecord
  2
*D2
340
0
  0
BLOCK_RECORD
  5
128
330
1
100
AcDbSymbolTableRecord
100
AcDbBlockTableRecord
  2
*D3
340
0
  0
BLOCK_RECORD
  5
135
330
1
100
AcDbSymbolTableRecord
100
AcDbBlockTableRecord
  2
*D4
340
0
  0
BLOCK_RECORD
  5
141
330
1
100
AcDbSymbolTableRecord
100
AcDbBlockTableRecord
  2
*D5
340
0
  0
BLOCK_RECORD
  5
14E
330
1
100
AcDbSymbolTableRecord
100
AcDbBlockTableRecord
  2
*D6
340
0
  0
BLOCK_RECORD
  5
15B
330
1
100
AcDbSymbolTableRecord
100
AcDbBlockTableRecord
  2
*D7
340
0
  0
BLOCK_RECORD
  5
167
330
1
100
AcDbSymbolTableRecord
100
AcDbBlockTableRecord
  2
*D8
340
0
  0
BLOCK_RECORD
  5
173
330
1
100
AcDbSymbolTableRecord
100
AcDbBlockTableRecord
  2
*D9
340
0
  0
BLOCK_RECORD
  5
17F
330
1
100
AcDbSymbolTableRecord
100
AcDbBlockTableRecord
  2
*D10
340
0
  0
BLOCK_RECORD
  5
18B
330
1
100
AcDbSymbolTableRecord
100
AcDbBlockTableRecord
  2
*D11
340
0
  0
BLOCK_RECORD
  5
197
330
1
100
AcDbSymbolTableRecord
100
AcDbBlockTableRecord
  2
*D12
340
0
  0
BLOCK_RECORD
  5
1A3
330
1
100
AcDbSymbolTableRecord
100
AcDbBlockTableRecord
  2
*D13
340
0
  0
BLOCK_RECORD
  5
1B0
330
1
100
AcDbSymbolTableRecord
100
AcDbBlockTableRecord
  2
*D14
340
0
  0
BLOCK_RECORD
  5
1BC
330
1
100
AcDbSymbolTableRecord
100
AcDbBlockTableRecord
  2
*D15
340
0
  0
BLOCK_RECORD
  5
1C8
330
1
100
AcDbSymbolTableRecord
100
AcDbBlockTableRecord
  2
*D16
340
0
  0
BLOCK_RECORD
  5
1D4
330
1
100
AcDbSymbolTableRecord
100
AcDbBlockTableRecord
  2
*D17
340
0
  0
BLOCK_RECORD
  5
1E0
330
1
100
AcDbSymbolTableRecord
100
AcDbBlockTableRecord
  2
*D18
340
0
  0
BLOCK_RECORD
  5
1EC
330
1
100
AcDbSymbolTableRecord
100
AcDbBlockTableRecord
  2
*D19
340
0
  0
BLOCK_RECORD
  5
1F9
330
1
100
AcDbSymbolTableRecord
100
AcDbBlockTableRecord
  2
*D20
340
0
  0
BLOCK_RECORD
  5
205
330
1
100
AcDbSymbolTableRecord
100
AcDbBlockTableRecord
  2
*D21
340
0
  0
BLOCK_RECORD
  5
211
330
1
100
AcDbSymbolTableRecord
100
AcDbBlockTableRecord
  2
*D22
340
0
  0
BLOCK_RECORD
  5
21E
330
1
100
AcDbSymbolTableRecord
100
AcDbBlockTableRecord
  2
*D23
340
0
  0
BLOCK_RECORD
  5
22B
330
1
100
AcDbSymbolTableRecord
100
AcDbBlockTableRecord
  2
*D24
340
0
  0
BLOCK_RECORD
  5
238
330
1
100
AcDbSymbolTableRecord
100
AcDbBlockTableRecord
  2
*D25
340
0
  0
BLOCK_RECORD
  5
244
330
1
100
AcDbSymbolTableRecord
100
AcDbBlockTableRecord
  2
*D26
340
0
  0
BLOCK_RECORD
  5
250
330
1
100
AcDbSymbolTableRecord
100
AcDbBlockTableRecord
  2
*D27
340
0
  0
BLOCK_RECORD
  5
25E
330
1
100
AcDbSymbolTableRecord
100
AcDbBlockTableRecord
  2
*D28
340
0
  0
BLOCK_RECORD
  5
26A
330
1
100
AcDbSymbolTableRecord
100
AcDbBlockTableRecord
  2
*D29
340
0
  0
BLOCK_RECORD
  5
276
330
1
100
AcDbSymbolTableRecord
100
AcDbBlockTableRecord
  2
*D30
340
0
  0
BLOCK_RECORD
  5
282
330
1
100
AcDbSymbolTableRecord
100
AcDbBlockTableRecord
  2
*D31
340
0
  0
BLOCK_RECORD
  5
653
330
1
100
AcDbSymbolTableRecord
100
AcDbBlockTableRecord
  2
*D33
340
0
  0
BLOCK_RECORD
  5
65F
330
1
100
AcDbSymbolTableRecord
100
AcDbBlockTableRecord
  2
*D34
340
0
  0
BLOCK_RECORD
  5
66C
330
1
100
AcDbSymbolTableRecord
100
AcDbBlockTableRecord
  2
*D35
340
0
  0
BLOCK_RECORD
  5
678
330
1
100
AcDbSymbolTableRecord
100
AcDbBlockTableRecord
  2
*D36
340
0
  0
BLOCK_RECORD
  5
685
330
1
100
AcDbSymbolTableRecord
100
AcDbBlockTableRecord
  2
*D37
340
0
  0
BLOCK_RECORD
  5
692
330
1
100
AcDbSymbolTableRecord
100
AcDbBlockTableRecord
  2
*D38
340
0
  0
BLOCK_RECORD
  5
69E
330
1
100
AcDbSymbolTableRecord
100
AcDbBlockTableRecord
  2
*D39
340
0
  0
BLOCK_RECORD
  5
6AA
330
1
100
AcDbSymbolTableRecord
100
AcDbBlockTableRecord
  2
*D40
340
0
  0
BLOCK_RECORD
  5
6B6
330
1
100
AcDbSymbolTableRecord
100
AcDbBlockTableRecord
  2
*D41
340
0
  0
BLOCK_RECORD
  5
6C2
330
1
100
AcDbSymbolTableRecord
100
AcDbBlockTableRecord
  2
*D42
340
0
  0
BLOCK_RECORD
  5
6CE
330
1
100
AcDbSymbolTableRecord
100
AcDbBlockTableRecord
  2
*D43
340
0
  0
BLOCK_RECORD
  5
6DA
330
1
100
AcDbSymbolTableRecord
100
AcDbBlockTableRecord
  2
*D44
340
0
  0
BLOCK_RECORD
  5
6E7
330
1
100
AcDbSymbolTableRecord
100
AcDbBlockTableRecord
  2
*D45
340
0
  0
BLOCK_RECORD
  5
6F3
330
1
100
AcDbSymbolTableRecord
100
AcDbBlockTableRecord
  2
*D46
340
0
  0
BLOCK_RECORD
  5
6FF
330
1
100
AcDbSymbolTableRecord
100
AcDbBlockTableRecord
  2
*D47
340
0
  0
BLOCK_RECORD
  5
70B
330
1
100
AcDbSymbolTableRecord
100
AcDbBlockTableRecord
  2
*D48
340
0
  0
BLOCK_RECORD
  5
762
330
1
100
AcDbSymbolTableRecord
100
AcDbBlockTableRecord
  2
*D49
340
0
  0
BLOCK_RECORD
  5
76E
330
1
100
AcDbSymbolTableRecord
100
AcDbBlockTableRecord
  2
*D50
340
0
  0
BLOCK_RECORD
  5
77B
330
1
100
AcDbSymbolTableRecord
100
AcDbBlockTableRecord
  2
*D51
340
0
  0
BLOCK_RECORD
  5
787
330
1
100
AcDbSymbolTableRecord
100
AcDbBlockTableRecord
  2
*D52
340
0
  0
BLOCK_RECORD
  5
793
330
1
100
AcDbSymbolTableRecord
100
AcDbBlockTableRecord
  2
*D53
340
0
  0
BLOCK_RECORD
  5
7A0
330
1
100
AcDbSymbolTableRecord
100
AcDbBlockTableRecord
  2
*D54
340
0
  0
BLOCK_RECORD
  5
7BF
330
1
100
AcDbSymbolTableRecord
100
AcDbBlockTableRecord
  2
*D55
340
0
  0
BLOCK_RECORD
  5
7CC
330
1
100
AcDbSymbolTableRecord
100
AcDbBlockTableRecord
  2
*D56
340
0
  0
BLOCK_RECORD
  5
7D8
330
1
100
AcDbSymbolTableRecord
100
AcDbBlockTableRecord
  2
*D57
340
0
  0
BLOCK_RECORD
  5
7E4
330
1
100
AcDbSymbolTableRecord
100
AcDbBlockTableRecord
  2
*D58
340
0
  0
BLOCK_RECORD
  5
7F2
330
1
100
AcDbSymbolTableRecord
100
AcDbBlockTableRecord
  2
*D59
340
0
  0
BLOCK_RECORD
  5
81A
330
1
100
AcDbSymbolTableRecord
100
AcDbBlockTableRecord
  2
*D60
340
0
  0
BLOCK_RECORD
  5
838
330
1
100
AcDbSymbolTableRecord
100
AcDbBlockTableRecord
  2
*D61
340
0
  0
BLOCK_RECORD
  5
844
330
1
100
AcDbSymbolTableRecord
100
AcDbBlockTableRecord
  2
*D62
340
0
  0
ENDTAB
  0
ENDSEC
  0
SECTION
  2
BLOCKS
  0
BLOCK
  5
20
330
1F
100
AcDbEntity
  8
0
100
AcDbBlockBegin
  2
*Model_Space
 70
     0
 10
0.0
 20
0.0
 30
0.0
  3
*Model_Space
  1

  0
ENDBLK
  5
21
330
1F
100
AcDbEntity
  8
0
100
AcDbBlockEnd
  0
BLOCK
  5
D4
330
D2
100
AcDbEntity
 67
     1
  8
0
100
AcDbBlockBegin
  2
*Paper_Space
 70
     0
 10
0.0
 20
0.0
 30
0.0
  3
*Paper_Space
  1

  0
ENDBLK
  5
D5
330
D2
100
AcDbEntity
 67
     1
  8
0
100
AcDbBlockEnd
  0
BLOCK
  5
D8
330
D6
100
AcDbEntity
 67
     1
  8
0
100
AcDbBlockBegin
  2
*Paper_Space0
 70
     0
 10
0.0
 20
0.0
 30
0.0
  3
*Paper_Space0
  1

  0
ENDBLK
  5
D9
330
D6
100
AcDbEntity
 67
     1
  8
0
100
AcDbBlockEnd
  0
BLOCK
  5
117
330
116
100
AcDbEntity
  8
0
100
AcDbBlockBegin
  2
_Open30
 70
     0
 10
0.0
 20
0.0
 30
0.0
  3
_Open30
  1

  0
LINE
  5
118
330
116
100
AcDbEntity
  8
0
  6
ByBlock
 62
     0
370
    -2
100
AcDbLine
 10
-1.0
 20
0.26794919
 30
0.0
 11
0.0
 21
0.0
 31
0.0
  0
LINE
  5
119
330
116
100
AcDbEntity
  8
0
  6
ByBlock
 62
     0
370
    -2
100
AcDbLine
 10
0.0
 20
0.0
 30
0.0
 11
-1.0
 21
-0.26794919
 31
0.0
  0
LINE
  5
11A
330
116
100
AcDbEntity
  8
0
  6
ByBlock
 62
     0
370
    -2
100
AcDbLine
 10
0.0
 20
0.0
 30
0.0
 11
-1.0
 21
0.0
 31
0.0
  0
ENDBLK
  5
11B
330
116
100
AcDbEntity
  8
0
100
AcDbBlockEnd
  0
BLOCK
  5
11D
330
11C
100
AcDbEntity
  8
0
100
AcDbBlockBegin
  2
*D2
 70
     1
 10
0.0
 20
0.0
 30
0.0
  3
*D2
  1

  0
LINE
  5
11E
330
11C
100
AcDbEntity
  8
1
 62
     0
370
    -2
100
AcDbLine
 10
20573.77916222623
 20
4408.5787091916
 30
0.0
 11
20630.78791594479
 21
4408.5787091916
 31
0.0
  0
LINE
  5
11F
330
11C
100
AcDbEntity
  8
1
 62
     0
370
    -2
100
AcDbLine
 10
20573.77916222623
 20
4268.582310632736
 30
0.0
 11
20630.78791594479
 21
4268.582310632736
 31
0.0
  0
LINE
  5
120
330
11C
100
AcDbEntity
  8
1
 62
     0
370
    -2
100
AcDbLine
 10
20629.78791594479
 20
4400.578709191599
 30
0.0
 11
20629.78791594479
 21
4276.582310632735
 31
0.0
  0
INSERT
  5
121
330
11C
100
AcDbEntity
  8
1
 62
     0
370
    -2
100
AcDbBlockReference
  2
_Open30
 10
20629.78791594479
 20
4408.5787091916
 30
0.0
 41
8.0
 42
8.0
 43
8.0
 50
90.0
  0
INSERT
  5
122
330
11C
100
AcDbEntity
  8
1
 62
     0
370
    -2
100
AcDbBlockReference
  2
_Open30
 10
20629.78791594479
 20
4268.582310632736
 30
0.0
 41
8.0
 42
8.0
 43
8.0
 50
270.0
  0
MTEXT
  5
123
330
11C
100
AcDbEntity
  8
1
 62
     0
370
     9
100
AcDbMText
 10
20637.78791594479
 20
4338.580509912172
 30
0.0
 40
8.0
 41
0.0
 71
     5
 72
     1
  1
\A1;140
 11
0.0000000000000001
 21
1.0
 31
0.0
 73
     1
 44
1.0
1001
ACAD
1000
MTEXTBEGIN
1070
    73
1070
     1
1070
    44
1040
1.0
1070
    74
1070
     0
1000
MTEXTEND
  0
POINT
  5
124
330
11C
100
AcDbEntity
  8
Defpoints
 62
     0
100
AcDbPoint
 10
20568.77916222623
 20
4408.5787091916
 30
0.0
  0
POINT
  5
125
330
11C
100
AcDbEntity
  8
Defpoints
 62
     0
100
AcDbPoint
 10
20568.77916222623
 20
4268.582310632736
 30
0.0
  0
POINT
  5
126
330
11C
100
AcDbEntity
  8
Defpoints
 62
     0
100
AcDbPoint
 10
20629.78791594479
 20
4268.582310632736
 30
0.0
  0
ENDBLK
  5
127
330
11C
100
AcDbEntity
  8
0
100
AcDbBlockEnd
  0
BLOCK
  5
129
330
128
100
AcDbEntity
  8
0
100
AcDbBlockBegin
  2
*D3
 70
     1
 10
0.0
 20
0.0
 30
0.0
  3
*D3
  1

  0
LINE
  5
12A
330
128
100
AcDbEntity
  8
1
 62
     0
370
    -2
100
AcDbLine
 10
20575.27916222623
 20
4443.580509912167
 30
0.0
 11
20575.27916222623
 21
4454.598777180187
 31
0.0
  0
LINE
  5
12B
330
128
100
AcDbEntity
  8
1
 62
     0
370
    -2
100
AcDbLine
 10
20568.77916222623
 20
4413.578709191599
 30
0.0
 11
20568.77916222623
 21
4454.598777180187
 31
0.0
  0
LINE
  5
12C
330
128
100
AcDbEntity
  8
1
 62
     0
370
    -2
100
AcDbLine
 10
20560.77916222623
 20
4453.598777180188
 30
0.0
 11
20552.77916222623
 21
4453.598777180188
 31
0.0
  0
LINE
  5
12D
330
128
100
AcDbEntity
  8
1
 62
     0
370
    -2
100
AcDbLine
 10
20583.27916222623
 20
4453.598777180188
 30
0.0
 11
20622.27916222623
 21
4453.598777180188
 31
0.0
  0
INSERT
  5
12E
330
128
100
AcDbEntity
  8
1
 62
     0
370
    -2
100
AcDbBlockReference
  2
_Open30
 10
20568.77916222623
 20
4453.598777180188
 30
0.0
 41
8.0
 42
8.0
 43
8.0
  0
INSERT
  5
12F
330
128
100
AcDbEntity
  8
1
 62
     0
370
    -2
100
AcDbBlockReference
  2
_Open30
 10
20575.27916222623
 20
4453.598777180188
 30
0.0
 41
8.0
 42
8.0
 43
8.0
 50
180.0
  0
MTEXT
  5
130
330
128
100
AcDbEntity
  8
1
 62
     0
370
     9
100
AcDbMText
 10
20610.27916222623
 20
4461.598777180188
 30
0.0
 40
8.0
 41
0.0
 71
     5
 72
     1
  1
\A1;6.5
 73
     1
 44
1.0
1001
ACAD
1000
MTEXTBEGIN
1070
    73
1070
     1
1070
    44
1040
1.0
1070
    74
1070
     0
1000
MTEXTEND
  0
POINT
  5
131
330
128
100
AcDbEntity
  8
Defpoints
 62
     0
100
AcDbPoint
 10
20575.27916222623
 20
4438.580509912167
 30
0.0
  0
POINT
  5
132
330
128
100
AcDbEntity
  8
Defpoints
 62
     0
100
AcDbPoint
 10
20568.77916222623
 20
4408.5787091916
 30
0.0
  0
POINT
  5
133
330
128
100
AcDbEntity
  8
Defpoints
 62
     0
100
AcDbPoint
 10
20568.77916222623
 20
4453.598777180188
 30
0.0
  0
ENDBLK
  5
134
330
128
100
AcDbEntity
  8
0
100
AcDbBlockEnd
  0
BLOCK
  5
136
330
135
100
AcDbEntity
  8
0
100
AcDbBlockBegin
  2
*D4
 70
     1
 10
0.0
 20
0.0
 30
0.0
  3
*D4
  1

  0
LINE
  5
137
330
135
100
AcDbEntity
  8
1
 62
     0
370
    -2
100
AcDbLine
 10
20476.27916222901
 20
4233.580509911138
 30
0.0
 11
20476.27916222901
 21
4220.655772018828
 31
0.0
  0
LINE
  5
138
330
135
100
AcDbEntity
  8
1
 62
     0
370
    -2
100
AcDbLine
 10
20561.27916222623
 20
4233.580509912163
 30
0.0
 11
20561.27916222623
 21
4220.655772018828
 31
0.0
  0
LINE
  5
139
330
135
100
AcDbEntity
  8
1
 62
     0
370
    -2
100
AcDbLine
 10
20484.27916222901
 20
4221.655772018827
 30
0.0
 11
20553.27916222623
 21
4221.655772018827
 31
0.0
  0
INSERT
  5
13A
330
135
100
AcDbEntity
  8
1
 62
     0
370
    -2
100
AcDbBlockReference
  2
_Open30
 10
20476.27916222901
 20
4221.655772018827
 30
0.0
 41
8.0
 42
8.0
 43
8.0
 50
180.0
  0
INSERT
  5
13B
330
135
100
AcDbEntity
  8
1
 62
     0
370
    -2
100
AcDbBlockReference
  2
_Open30
 10
20561.27916222623
 20
4221.655772018827
 30
0.0
 41
8.0
 42
8.0
 43
8.0
  0
MTEXT
  5
13C
330
135
100
AcDbEntity
  8
1
 62
     0
370
     9
100
AcDbMText
 10
20518.77916222762
 20
4213.655772018827
 30
0.0
 40
8.0
 41
0.0
 71
     5
 72
     1
  1
\A1;85
 73
     1
 44
1.0
1001
ACAD
1000
MTEXTBEGIN
1070
    73
1070
     1
1070
    44
1040
1.0
1070
    74
1070
     0
1000
MTEXTEND
  0
POINT
  5
13D
330
135
100
AcDbEntity
  8
Defpoints
 62
     0
100
AcDbPoint
 10
20476.27916222901
 20
4238.580509911137
 30
0.0
  0
POINT
  5
13E
330
135
100
AcDbEntity
  8
Defpoints
 62
     0
100
AcDbPoint
 10
20561.27916222623
 20
4238.580509912163
 30
0.0
  0
POINT
  5
13F
330
135
100
AcDbEntity
  8
Defpoints
 62
     0
100
AcDbPoint
 10
20561.27916222623
 20
4221.655772018827
 30
0.0
  0
ENDBLK
  5
140
330
135
100
AcDbEntity
  8
0
100
AcDbBlockEnd
  0
BLOCK
  5
142
330
141
100
AcDbEntity
  8
0
100
AcDbBlockBegin
  2
*D5
 70
     1
 10
0.0
 20
0.0
 30
0.0
  3
*D5
  1

  0
LINE
  5
143
330
141
100
AcDbEntity
  8
1
 62
     0
370
    -2
100
AcDbLine
 10
20561.27916222623
 20
4233.580509912163
 30
0.0
 11
20561.27916222623
 21
4220.655772018825
 31
0.0
  0
LINE
  5
144
330
141
100
AcDbEntity
  8
1
 62
     0
370
    -2
100
AcDbLine
 10
20575.27916222623
 20
4233.580509912163
 30
0.0
 11
20575.27916222623
 21
4220.655772018825
 31
0.0
  0
LINE
  5
145
330
141
100
AcDbEntity
  8
1
 62
     0
370
    -2
100
AcDbLine
 10
20553.27916222623
 20
4221.655772018825
 30
0.0
 11
20545.27916222623
 21
4221.655772018825
 31
0.0
  0
LINE
  5
146
330
141
100
AcDbEntity
  8
1
 62
     0
370
    -2
100
AcDbLine
 10
20583.27916222623
 20
4221.655772018825
 30
0.0
 11
20591.27916222623
 21
4221.655772018825
 31
0.0
  0
INSERT
  5
147
330
141
100
AcDbEntity
  8
1
 62
     0
370
    -2
100
AcDbBlockReference
  2
_Open30
 10
20561.27916222623
 20
4221.655772018825
 30
0.0
 41
8.0
 42
8.0
 43
8.0
  0
INSERT
  5
148
330
141
100
AcDbEntity
  8
1
 62
     0
370
    -2
100
AcDbBlockReference
  2
_Open30
 10
20575.27916222623
 20
4221.655772018825
 30
0.0
 41
8.0
 42
8.0
 43
8.0
 50
180.0
  0
MTEXT
  5
149
330
141
100
AcDbEntity
  8
1
 62
     0
370
     9
100
AcDbMText
 10
20568.27916222623
 20
4213.655772018825
 30
0.0
 40
8.0
 41
0.0
 71
     5
 72
     1
  1
\A1;14
 73
     1
 44
1.0
1001
ACAD
1000
MTEXTBEGIN
1070
    73
1070
     1
1070
    44
1040
1.0
1070
    74
1070
     0
1000
MTEXTEND
  0
POINT
  5
14A
330
141
100
AcDbEntity
  8
Defpoints
 62
     0
100
AcDbPoint
 10
20561.27916222623
 20
4238.580509912163
 30
0.0
  0
POINT
  5
14B
330
141
100
AcDbEntity
  8
Defpoints
 62
     0
100
AcDbPoint
 10
20575.27916222623
 20
4238.580509912163
 30
0.0
  0
POINT
  5
14C
330
141
100
AcDbEntity
  8
Defpoints
 62
     0
100
AcDbPoint
 10
20575.27916222623
 20
4221.655772018825
 30
0.0
  0
ENDBLK
  5
14D
330
141
100
AcDbEntity
  8
0
100
AcDbBlockEnd
  0
BLOCK
  5
14F
330
14E
100
AcDbEntity
  8
0
100
AcDbBlockBegin
  2
*D6
 70
     1
 10
0.0
 20
0.0
 30
0.0
  3
*D6
  1

  0
LINE
  5
150
330
14E
100
AcDbEntity
  8
1
 62
     0
370
    -2
100
AcDbLine
 10
20476.27916222901
 20
4233.580509911138
 30
0.0
 11
20476.27916222901
 21
4220.655772018826
 31
0.0
  0
LINE
  5
151
330
14E
100
AcDbEntity
  8
1
 62
     0
370
    -2
100
AcDbLine
 10
20473.77916222851
 20
4233.580509911138
 30
0.0
 11
20473.77916222851
 21
4220.655772018826
 31
0.0
  0
LINE
  5
152
330
14E
100
AcDbEntity
  8
1
 62
     0
370
    -2
100
AcDbLine
 10
20484.27916222901
 20
4221.655772018826
 30
0.0
 11
20492.27916222901
 21
4221.655772018826
 31
0.0
  0
LINE
  5
153
330
14E
100
AcDbEntity
  8
1
 62
     0
370
    -2
100
AcDbLine
 10
20465.77916222851
 20
4221.655772018826
 30
0.0
 11
20457.77916222851
 21
4221.655772018826
 31
0.0
  0
INSERT
  5
154
330
14E
100
AcDbEntity
  8
1
 62
     0
370
    -2
100
AcDbBlockReference
  2
_Open30
 10
20476.27916222901
 20
4221.655772018826
 30
0.0
 41
8.0
 42
8.0
 43
8.0
 50
180.0
  0
INSERT
  5
155
330
14E
100
AcDbEntity
  8
1
 62
     0
370
    -2
100
AcDbBlockReference
  2
_Open30
 10
20473.77916222851
 20
4221.655772018826
 30
0.0
 41
8.0
 42
8.0
 43
8.0
  0
MTEXT
  5
156
330
14E
100
AcDbEntity
  8
1
 62
     0
370
     9
100
AcDbMText
 10
20475.02916222876
 20
4213.655772018826
 30
0.0
 40
8.0
 41
0.0
 71
     5
 72
     1
  1
\A1;2.5
 73
     1
 44
1.0
1001
ACAD
1000
MTEXTBEGIN
1070
    73
1070
     1
1070
    44
1040
1.0
1070
    74
1070
     0
1000
MTEXTEND
  0
POINT
  5
157
330
14E
100
AcDbEntity
  8
Defpoints
 62
     0
100
AcDbPoint
 10
20476.27916222901
 20
4238.580509911137
 30
0.0
  0
POINT
  5
158
330
14E
100
AcDbEntity
  8
Defpoints
 62
     0
100
AcDbPoint
 10
20473.77916222851
 20
4238.580509911137
 30
0.0
  0
POINT
  5
159
330
14E
100
AcDbEntity
  8
Defpoints
 62
     0
100
AcDbPoint
 10
20473.77916222851
 20
4221.655772018826
 30
0.0
  0
ENDBLK
  5
15A
330
14E
100
AcDbEntity
  8
0
100
AcDbBlockEnd
  0
BLOCK
  5
15C
330
15B
100
AcDbEntity
  8
0
100
AcDbBlockBegin
  2
*D7
 70
     1
 10
0.0
 20
0.0
 30
0.0
  3
*D7
  1

  0
LINE
  5
15D
330
15B
100
AcDbEntity
  8
1
 62
     0
370
    -2
100
AcDbLine
 10
20473.77916222851
 20
4215.655772018827
 30
0.0
 11
20473.77916222851
 21
4194.178386769489
 31
0.0
  0
LINE
  5
15E
330
15B
100
AcDbEntity
  8
1
 62
     0
370
    -2
100
AcDbLine
 10
20575.27916222623
 20
4215.655772018826
 30
0.0
 11
20575.27916222623
 21
4194.178386769489
 31
0.0
  0
LINE
  5
15F
330
15B
100
AcDbEntity
  8
1
 62
     0
370
    -2
100
AcDbLine
 10
20481.77916222851
 20
4195.178386769489
 30
0.0
 11
20567.27916222623
 21
4195.178386769489
 31
0.0
  0
INSERT
  5
160
330
15B
100
AcDbEntity
  8
1
 62
     0
370
    -2
100
AcDbBlockReference
  2
_Open30
 10
20473.77916222851
 20
4195.178386769489
 30
0.0
 41
8.0
 42
8.0
 43
8.0
 50
180.0
  0
INSERT
  5
161
330
15B
100
AcDbEntity
  8
1
 62
     0
370
    -2
100
AcDbBlockReference
  2
_Open30
 10
20575.27916222623
 20
4195.178386769489
 30
0.0
 41
8.0
 42
8.0
 43
8.0
  0
MTEXT
  5
162
330
15B
100
AcDbEntity
  8
1
 62
     0
370
     9
100
AcDbMText
 10
20524.52916222737
 20
4187.178386769489
 30
0.0
 40
8.0
 41
0.0
 71
     5
 72
     1
  1
\A1;101.5
 73
     1
 44
1.0
1001
ACAD
1000
MTEXTBEGIN
1070
    73
1070
     1
1070
    44
1040
1.0
1070
    74
1070
     0
1000
MTEXTEND
  0
POINT
  5
163
330
15B
100
AcDbEntity
  8
Defpoints
 62
     0
100
AcDbPoint
 10
20473.77916222851
 20
4220.655772018828
 30
0.0
  0
POINT
  5
164
330
15B
100
AcDbEntity
  8
Defpoints
 62
     0
100
AcDbPoint
 10
20575.27916222623
 20
4220.655772018825
 30
0.0
  0
POINT
  5
165
330
15B
100
AcDbEntity
  8
Defpoints
 62
     0
100
AcDbPoint
 10
20575.27916222623
 20
4195.178386769489
 30
0.0
  0
ENDBLK
  5
166
330
15B
100
AcDbEntity
  8
0
100
AcDbBlockEnd
  0
BLOCK
  5
168
330
167
100
AcDbEntity
  8
0
100
AcDbBlockBegin
  2
*D8
 70
     1
 10
0.0
 20
0.0
 30
0.0
  3
*D8
  1

  0
LINE
  5
169
330
167
100
AcDbEntity
  8
1
 62
     0
370
    -2
100
AcDbLine
 10
20603.00481169641
 20
4438.580509912167
 30
0.0
 11
20656.57102019317
 21
4438.580509912167
 31
0.0
  0
LINE
  5
16A
330
167
100
AcDbEntity
  8
1
 62
     0
370
    -2
100
AcDbLine
 10
20603.00481169641
 20
4238.580509912163
 30
0.0
 11
20656.57102019317
 21
4238.580509912163
 31
0.0
  0
LINE
  5
16B
330
167
100
AcDbEntity
  8
1
 62
     0
370
    -2
100
AcDbLine
 10
20655.57102019317
 20
4430.580509912167
 30
0.0
 11
20655.57102019317
 21
4246.580509912163
 31
0.0
  0
INSERT
  5
16C
330
167
100
AcDbEntity
  8
1
 62
     0
370
    -2
100
AcDbBlockReference
  2
_Open30
 10
20655.57102019317
 20
4438.580509912167
 30
0.0
 41
8.0
 42
8.0
 43
8.0
 50
90.0
  0
INSERT
  5
16D
330
167
100
AcDbEntity
  8
1
 62
     0
370
    -2
100
AcDbBlockReference
  2
_Open30
 10
20655.57102019317
 20
4238.580509912163
 30
0.0
 41
8.0
 42
8.0
 43
8.0
 50
270.0
  0
MTEXT
  5
16E
330
167
100
AcDbEntity
  8
1
 62
     0
370
     9
100
AcDbMText
 10
20663.57102019317
 20
4338.580509912168
 30
0.0
 40
8.0
 41
0.0
 71
     5
 72
     1
  1
\A1;200
 11
0.0000000000000001
 21
1.0
 31
0.0
 73
     1
 44
1.0
1001
ACAD
1000
MTEXTBEGIN
1070
    73
1070
     1
1070
    44
1040
1.0
1070
    74
1070
     0
1000
MTEXTEND
  0
POINT
  5
16F
330
167
100
AcDbEntity
  8
Defpoints
 62
     0
100
AcDbPoint
 10
20598.00481169641
 20
4438.580509912167
 30
0.0
  0
POINT
  5
170
330
167
100
AcDbEntity
  8
Defpoints
 62
     0
100
AcDbPoint
 10
20598.00481169641
 20
4238.580509912163
 30
0.0
  0
POINT
  5
171
330
167
100
AcDbEntity
  8
Defpoints
 62
     0
100
AcDbPoint
 10
20655.57102019317
 20
4238.580509912163
 30
0.0
  0
ENDBLK
  5
172
330
167
100
AcDbEntity
  8
0
100
AcDbBlockEnd
  0
BLOCK
  5
174
330
173
100
AcDbEntity
  8
0
100
AcDbBlockBegin
  2
*D9
 70
     1
 10
0.0
 20
0.0
 30
0.0
  3
*D9
  1

  0
LINE
  5
175
330
173
100
AcDbEntity
  8
1
 62
     0
370
    -2
100
AcDbLine
 10
20566.95977117402
 20
4388.580509911967
 30
0.0
 11
20602.58625858441
 21
4388.580509911967
 31
0.0
  0
LINE
  5
176
330
173
100
AcDbEntity
  8
1
 62
     0
370
    -2
100
AcDbLine
 10
20566.27916222623
 20
4288.580509912367
 30
0.0
 11
20602.58625858441
 21
4288.580509912367
 31
0.0
  0
LINE
  5
177
330
173
100
AcDbEntity
  8
1
 62
     0
370
    -2
100
AcDbLine
 10
20601.58625858441
 20
4380.580509911967
 30
0.0
 11
20601.58625858441
 21
4296.580509912367
 31
0.0
  0
INSERT
  5
178
330
173
100
AcDbEntity
  8
1
 62
     0
370
    -2
100
AcDbBlockReference
  2
_Open30
 10
20601.58625858441
 20
4388.580509911967
 30
0.0
 41
8.0
 42
8.0
 43
8.0
 50
90.0
  0
INSERT
  5
179
330
173
100
AcDbEntity
  8
1
 62
     0
370
    -2
100
AcDbBlockReference
  2
_Open30
 10
20601.58625858441
 20
4288.580509912367
 30
0.0
 41
8.0
 42
8.0
 43
8.0
 50
270.0
  0
MTEXT
  5
17A
330
173
100
AcDbEntity
  8
1
 62
     0
370
     9
100
AcDbMText
 10
20609.58625858441
 20
4338.580509912171
 30
0.0
 40
8.0
 41
0.0
 71
     5
 72
     1
  1
\A1;100
 11
0.0000000000000001
 21
1.0
 31
0.0
 73
     1
 44
1.0
1001
ACAD
1000
MTEXTBEGIN
1070
    73
1070
     1
1070
    44
1040
1.0
1070
    74
1070
     0
1000
MTEXTEND
  0
POINT
  5
17B
330
173
100
AcDbEntity
  8
Defpoints
 62
     0
100
AcDbPoint
 10
20561.95977117402
 20
4388.580509911967
 30
0.0
  0
POINT
  5
17C
330
173
100
AcDbEntity
  8
Defpoints
 62
     0
100
AcDbPoint
 10
20561.27916222623
 20
4288.580509912367
 30
0.0
  0
POINT
  5
17D
330
173
100
AcDbEntity
  8
Defpoints
 62
     0
100
AcDbPoint
 10
20601.58625858441
 20
4288.580509912367
 30
0.0
  0
ENDBLK
  5
17E
330
173
100
AcDbEntity
  8
0
100
AcDbBlockEnd
  0
BLOCK
  5
180
330
17F
100
AcDbEntity
  8
0
100
AcDbBlockBegin
  2
*D10
 70
     1
 10
0.0
 20
0.0
 30
0.0
  3
*D10
  1

  0
LINE
  5
181
330
17F
100
AcDbEntity
  8
1
 62
     0
370
    -2
100
AcDbLine
 10
20217.26551771184
 20
4428.580509913197
 30
0.0
 11
20231.99598949073
 21
4428.580509913197
 31
0.0
  0
LINE
  5
182
330
17F
100
AcDbEntity
  8
1
 62
     0
370
    -2
100
AcDbLine
 10
20217.26551771184
 20
4361.583324894101
 30
0.0
 11
20231.99598949073
 21
4361.583324894101
 31
0.0
  0
LINE
  5
183
330
17F
100
AcDbEntity
  8
1
 62
     0
370
    -2
100
AcDbLine
 10
20230.99598949074
 20
4420.580509913196
 30
0.0
 11
20230.99598949074
 21
4369.5833248941
 31
0.0
  0
INSERT
  5
184
330
17F
100
AcDbEntity
  8
1
 62
     0
370
    -2
100
AcDbBlockReference
  2
_Open30
 10
20230.99598949074
 20
4428.580509913197
 30
0.0
 41
8.0
 42
8.0
 43
8.0
 50
90.0
  0
INSERT
  5
185
330
17F
100
AcDbEntity
  8
1
 62
     0
370
    -2
100
AcDbBlockReference
  2
_Open30
 10
20230.99598949074
 20
4361.583324894101
 30
0.0
 41
8.0
 42
8.0
 43
8.0
 50
270.0
  0
MTEXT
  5
186
330
17F
100
AcDbEntity
  8
1
 62
     0
370
     9
100
AcDbMText
 10
20238.99598949074
 20
4395.081917403652
 30
0.0
 40
8.0
 41
0.0
 71
     5
 72
     1
  1
\A1;67
 11
0.0000000000000001
 21
1.0
 31
0.0
 73
     1
 44
1.0
1001
ACAD
1000
MTEXTBEGIN
1070
    73
1070
     1
1070
    44
1040
1.0
1070
    74
1070
     0
1000
MTEXTEND
  0
POINT
  5
187
330
17F
100
AcDbEntity
  8
Defpoints
 62
     0
100
AcDbPoint
 10
20212.26551771184
 20
4428.580509913197
 30
0.0
  0
POINT
  5
188
330
17F
100
AcDbEntity
  8
Defpoints
 62
     0
100
AcDbPoint
 10
20212.26551771184
 20
4361.583324894101
 30
0.0
  0
POINT
  5
189
330
17F
100
AcDbEntity
  8
Defpoints
 62
     0
100
AcDbPoint
 10
20230.99598949074
 20
4361.583324894101
 30
0.0
  0
ENDBLK
  5
18A
330
17F
100
AcDbEntity
  8
0
100
AcDbBlockEnd
  0
BLOCK
  5
18C
330
18B
100
AcDbEntity
  8
0
100
AcDbBlockBegin
  2
*D11
 70
     1
 10
0.0
 20
0.0
 30
0.0
  3
*D11
  1

  0
LINE
  5
18D
330
18B
100
AcDbEntity
  8
1
 62
     0
370
    -2
100
AcDbLine
 10
20217.26551771184
 20
4361.583324894101
 30
0.0
 11
20231.99598949073
 21
4361.583324894101
 31
0.0
  0
LINE
  5
18E
330
18B
100
AcDbEntity
  8
1
 62
     0
370
    -2
100
AcDbLine
 10
20217.26551771184
 20
4277.58812632259
 30
0.0
 11
20231.99598949073
 21
4277.58812632259
 31
0.0
  0
LINE
  5
18F
330
18B
100
AcDbEntity
  8
1
 62
     0
370
    -2
100
AcDbLine
 10
20230.99598949074
 20
4353.583324894101
 30
0.0
 11
20230.99598949074
 21
4285.58812632259
 31
0.0
  0
INSERT
  5
190
330
18B
100
AcDbEntity
  8
1
 62
     0
370
    -2
100
AcDbBlockReference
  2
_Open30
 10
20230.99598949074
 20
4361.583324894101
 30
0.0
 41
8.0
 42
8.0
 43
8.0
 50
90.0
  0
INSERT
  5
191
330
18B
100
AcDbEntity
  8
1
 62
     0
370
    -2
100
AcDbBlockReference
  2
_Open30
 10
20230.99598949074
 20
4277.58812632259
 30
0.0
 41
8.0
 42
8.0
 43
8.0
 50
270.0
  0
MTEXT
  5
192
330
18B
100
AcDbEntity
  8
1
 62
     0
370
     9
100
AcDbMText
 10
20238.99598949074
 20
4319.585725608349
 30
0.0
 40
8.0
 41
0.0
 71
     5
 72
     1
  1
\A1;84
 11
0.0000000000000001
 21
1.0
 31
0.0
 73
     1
 44
1.0
1001
ACAD
1000
MTEXTBEGIN
1070
    73
1070
     1
1070
    44
1040
1.0
1070
    74
1070
     0
1000
MTEXTEND
  0
POINT
  5
193
330
18B
100
AcDbEntity
  8
Defpoints
 62
     0
100
AcDbPoint
 10
20212.26551771184
 20
4361.583324894101
 30
0.0
  0
POINT
  5
194
330
18B
100
AcDbEntity
  8
Defpoints
 62
     0
100
AcDbPoint
 10
20212.26551771184
 20
4277.58812632259
 30
0.0
  0
POINT
  5
195
330
18B
100
AcDbEntity
  8
Defpoints
 62
     0
100
AcDbPoint
 10
20230.99598949074
 20
4277.58812632259
 30
0.0
  0
ENDBLK
  5
196
330
18B
100
AcDbEntity
  8
0
100
AcDbBlockEnd
  0
BLOCK
  5
198
330
197
100
AcDbEntity
  8
0
100
AcDbBlockBegin
  2
*D12
 70
     1
 10
0.0
 20
0.0
 30
0.0
  3
*D12
  1

  0
LINE
  5
199
330
197
100
AcDbEntity
  8
1
 62
     0
370
    -2
100
AcDbLine
 10
20178.26551771294
 20
4423.580509913196
 30
0.0
 11
20122.73087265829
 21
4423.580509913196
 31
0.0
  0
LINE
  5
19A
330
197
100
AcDbEntity
  8
1
 62
     0
370
    -2
100
AcDbLine
 10
20184.76551771294
 20
4253.580509911137
 30
0.0
 11
20122.73087265829
 21
4253.580509911137
 31
0.0
  0
LINE
  5
19B
330
197
100
AcDbEntity
  8
1
 62
     0
370
    -2
100
AcDbLine
 10
20123.73087265829
 20
4415.580509913197
 30
0.0
 11
20123.73087265829
 21
4261.580509911137
 31
0.0
  0
INSERT
  5
19C
330
197
100
AcDbEntity
  8
1
 62
     0
370
    -2
100
AcDbBlockReference
  2
_Open30
 10
20123.73087265829
 20
4423.580509913196
 30
0.0
 41
8.0
 42
8.0
 43
8.0
 50
90.0
  0
INSERT
  5
19D
330
197
100
AcDbEntity
  8
1
 62
     0
370
    -2
100
AcDbBlockReference
  2
_Open30
 10
20123.73087265829
 20
4253.580509911137
 30
0.0
 41
8.0
 42
8.0
 43
8.0
 50
270.0
  0
MTEXT
  5
19E
330
197
100
AcDbEntity
  8
1
 62
     0
370
     9
100
AcDbMText
 10
20115.73087265829
 20
4338.580509912171
 30
0.0
 40
8.0
 41
0.0
 71
     5
 72
     1
  1
\A1;170
 11
0.0000000000000001
 21
1.0
 31
0.0
 73
     1
 44
1.0
1001
ACAD
1000
MTEXTBEGIN
1070
    73
1070
     1
1070
    44
1040
1.0
1070
    74
1070
     0
1000
MTEXTEND
  0
POINT
  5
19F
330
197
100
AcDbEntity
  8
Defpoints
 62
     0
100
AcDbPoint
 10
20183.26551771294
 20
4423.580509913196
 30
0.0
  0
POINT
  5
1A0
330
197
100
AcDbEntity
  8
Defpoints
 62
     0
100
AcDbPoint
 10
20189.76551771294
 20
4253.580509911137
 30
0.0
  0
POINT
  5
1A1
330
197
100
AcDbEntity
  8
Defpoints
 62
     0
100
AcDbPoint
 10
20123.73087265829
 20
4253.580509911137
 30
0.0
  0
ENDBLK
  5
1A2
330
197
100
AcDbEntity
  8
0
100
AcDbBlockEnd
  0
BLOCK
  5
1A4
330
1A3
100
AcDbEntity
  8
0
100
AcDbBlockBegin
  2
*D13
 70
     1
 10
0.0
 20
0.0
 30
0.0
  3
*D13
  1

  0
LINE
  5
1A5
330
1A3
100
AcDbEntity
  8
1
 62
     0
370
    -2
100
AcDbLine
 10
20184.76551771294
 20
4423.580509913196
 30
0.0
 11
20122.73087265829
 21
4423.580509913196
 31
0.0
  0
LINE
  5
1A6
330
1A3
100
AcDbEntity
  8
1
 62
     0
370
    -2
100
AcDbLine
 10
20178.26551771294
 20
4438.580509913196
 30
0.0
 11
20122.73087265829
 21
4438.580509913196
 31
0.0
  0
LINE
  5
1A7
330
1A3
100
AcDbEntity
  8
1
 62
     0
370
    -2
100
AcDbLine
 10
20123.73087265829
 20
4415.580509913197
 30
0.0
 11
20123.73087265829
 21
4407.580509913197
 31
0.0
  0
LINE
  5
1A8
330
1A3
100
AcDbEntity
  8
1
 62
     0
370
    -2
100
AcDbLine
 10
20123.73087265829
 20
4446.580509913196
 30
0.0
 11
20123.73087265829
 21
4473.247176579863
 31
0.0
  0
INSERT
  5
1A9
330
1A3
100
AcDbEntity
  8
1
 62
     0
370
    -2
100
AcDbBlockReference
  2
_Open30
 10
20123.73087265829
 20
4423.580509913196
 30
0.0
 41
8.0
 42
8.0
 43
8.0
 50
90.0
  0
INSERT
  5
1AA
330
1A3
100
AcDbEntity
  8
1
 62
     0
370
    -2
100
AcDbBlockReference
  2
_Open30
 10
20123.73087265829
 20
4438.580509913196
 30
0.0
 41
8.0
 42
8.0
 43
8.0
 50
270.0
  0
MTEXT
  5
1AB
330
1A3
100
AcDbEntity
  8
1
 62
     0
370
     9
100
AcDbMText
 10
20115.73087265829
 20
4463.913843246533
 30
0.0
 40
8.0
 41
0.0
 71
     5
 72
     1
  1
\A1;15
 11
0.0000000000000001
 21
1.0
 31
0.0
 73
     1
 44
1.0
1001
ACAD
1000
MTEXTBEGIN
1070
    73
1070
     1
1070
    44
1040
1.0
1070
    74
1070
     0
1000
MTEXTEND
  0
POINT
  5
1AC
330
1A3
100
AcDbEntity
  8
Defpoints
 62
     0
100
AcDbPoint
 10
20189.76551771294
 20
4423.580509913196
 30
0.0
  0
POINT
  5
1AD
330
1A3
100
AcDbEntity
  8
Defpoints
 62
     0
100
AcDbPoint
 10
20183.26551771294
 20
4438.580509913196
 30
0.0
  0
POINT
  5
1AE
330
1A3
100
AcDbEntity
  8
Defpoints
 62
     0
100
AcDbPoint
 10
20123.73087265829
 20
4438.580509913196
 30
0.0
  0
ENDBLK
  5
1AF
330
1A3
100
AcDbEntity
  8
0
100
AcDbBlockEnd
  0
BLOCK
  5
1B1
330
1B0
100
AcDbEntity
  8
0
100
AcDbBlockBegin
  2
*D14
 70
     1
 10
0.0
 20
0.0
 30
0.0
  3
*D14
  1

  0
LINE
  5
1B2
330
1B0
100
AcDbEntity
  8
1
 62
     0
370
    -2
100
AcDbLine
 10
20217.26551771184
 20
4438.580509913196
 30
0.0
 11
20255.4766872313
 21
4438.580509913196
 31
0.0
  0
LINE
  5
1B3
330
1B0
100
AcDbEntity
  8
1
 62
     0
370
    -2
100
AcDbLine
 10
20216.31315275178
 20
4238.580509911137
 30
0.0
 11
20255.4766872313
 21
4238.580509911137
 31
0.0
  0
LINE
  5
1B4
330
1B0
100
AcDbEntity
  8
1
 62
     0
370
    -2
100
AcDbLine
 10
20254.4766872313
 20
4430.580509913196
 30
0.0
 11
20254.4766872313
 21
4246.580509911138
 31
0.0
  0
INSERT
  5
1B5
330
1B0
100
AcDbEntity
  8
1
 62
     0
370
    -2
100
AcDbBlockReference
  2
_Open30
 10
20254.4766872313
 20
4438.580509913196
 30
0.0
 41
8.0
 42
8.0
 43
8.0
 50
90.0
  0
INSERT
  5
1B6
330
1B0
100
AcDbEntity
  8
1
 62
     0
370
    -2
100
AcDbBlockReference
  2
_Open30
 10
20254.4766872313
 20
4238.580509911137
 30
0.0
 41
8.0
 42
8.0
 43
8.0
 50
270.0
  0
MTEXT
  5
1B7
330
1B0
100
AcDbEntity
  8
1
 62
     0
370
     9
100
AcDbMText
 10
20262.4766872313
 20
4338.580509912171
 30
0.0
 40
8.0
 41
0.0
 71
     5
 72
     1
  1
\A1;200
 11
0.0000000000000001
 21
1.0
 31
0.0
 73
     1
 44
1.0
1001
ACAD
1000
MTEXTBEGIN
1070
    73
1070
     1
1070
    44
1040
1.0
1070
    74
1070
     0
1000
MTEXTEND
  0
POINT
  5
1B8
330
1B0
100
AcDbEntity
  8
Defpoints
 62
     0
100
AcDbPoint
 10
20212.26551771184
 20
4438.580509913196
 30
0.0
  0
POINT
  5
1B9
330
1B0
100
AcDbEntity
  8
Defpoints
 62
     0
100
AcDbPoint
 10
20211.31315275177
 20
4238.580509911137
 30
0.0
  0
POINT
  5
1BA
330
1B0
100
AcDbEntity
  8
Defpoints
 62
     0
100
AcDbPoint
 10
20254.4766872313
 20
4238.580509911137
 30
0.0
  0
ENDBLK
  5
1BB
330
1B0
100
AcDbEntity
  8
0
100
AcDbBlockEnd
  0
BLOCK
  5
1BD
330
1BC
100
AcDbEntity
  8
0
100
AcDbBlockBegin
  2
*D15
 70
     1
 10
0.0
 20
0.0
 30
0.0
  3
*D15
  1

  0
LINE
  5
1BE
330
1BC
100
AcDbEntity
  8
1
 62
     0
370
    -2
100
AcDbLine
 10
20376.56821539791
 20
4213.872151854388
 30
0.0
 11
20376.56821539791
 21
4192.39433574918
 31
0.0
  0
LINE
  5
1BF
330
1BC
100
AcDbEntity
  8
1
 62
     0
370
    -2
100
AcDbLine
 10
20321.56821539791
 20
4233.580509912163
 30
0.0
 11
20321.56821539791
 21
4192.39433574918
 31
0.0
  0
LINE
  5
1C0
330
1BC
100
AcDbEntity
  8
1
 62
     0
370
    -2
100
AcDbLine
 10
20368.56821539791
 20
4193.39433574918
 30
0.0
 11
20329.56821539791
 21
4193.39433574918
 31
0.0
  0
INSERT
  5
1C1
330
1BC
100
AcDbEntity
  8
1
 62
     0
370
    -2
100
AcDbBlockReference
  2
_Open30
 10
20376.56821539791
 20
4193.39433574918
 30
0.0
 41
8.0
 42
8.0
 43
8.0
  0
INSERT
  5
1C2
330
1BC
100
AcDbEntity
  8
1
 62
     0
370
    -2
100
AcDbBlockReference
  2
_Open30
 10
20321.56821539791
 20
4193.39433574918
 30
0.0
 41
8.0
 42
8.0
 43
8.0
 50
180.0
  0
MTEXT
  5
1C3
330
1BC
100
AcDbEntity
  8
1
 62
     0
370
     9
100
AcDbMText
 10
20349.06821539791
 20
4185.39433574918
 30
0.0
 40
8.0
 41
0.0
 71
     5
 72
     1
  1
\A1;55
 73
     1
 44
1.0
1001
ACAD
1000
MTEXTBEGIN
1070
    73
1070
     1
1070
    44
1040
1.0
1070
    74
1070
     0
1000
MTEXTEND
  0
POINT
  5
1C4
330
1BC
100
AcDbEntity
  8
Defpoints
 62
     0
100
AcDbPoint
 10
20376.56821539791
 20
4218.872151854389
 30
0.0
  0
POINT
  5
1C5
330
1BC
100
AcDbEntity
  8
Defpoints
 62
     0
100
AcDbPoint
 10
20321.56821539791
 20
4238.580509912163
 30
0.0
  0
POINT
  5
1C6
330
1BC
100
AcDbEntity
  8
Defpoints
 62
     0
100
AcDbPoint
 10
20321.56821539791
 20
4193.39433574918
 30
0.0
  0
ENDBLK
  5
1C7
330
1BC
100
AcDbEntity
  8
0
100
AcDbBlockEnd
  0
BLOCK
  5
1C9
330
1C8
100
AcDbEntity
  8
0
100
AcDbBlockBegin
  2
*D16
 70
     1
 10
0.0
 20
0.0
 30
0.0
  3
*D16
  1

  0
LINE
  5
1CA
330
1C8
100
AcDbEntity
  8
1
 62
     0
370
    -2
100
AcDbLine
 10
20212.26551771184
 20
4272.58812632259
 30
0.0
 11
20212.26551771184
 21
4218.053094861897
 31
0.0
  0
LINE
  5
1CB
330
1C8
100
AcDbEntity
  8
1
 62
     0
370
    -2
100
AcDbLine
 10
20167.26551771404
 20
4243.580509911137
 30
0.0
 11
20167.26551771404
 21
4218.053094861897
 31
0.0
  0
LINE
  5
1CC
330
1C8
100
AcDbEntity
  8
1
 62
     0
370
    -2
100
AcDbLine
 10
20204.26551771184
 20
4219.053094861897
 30
0.0
 11
20175.26551771404
 21
4219.053094861897
 31
0.0
  0
INSERT
  5
1CD
330
1C8
100
AcDbEntity
  8
1
 62
     0
370
    -2
100
AcDbBlockReference
  2
_Open30
 10
20212.26551771184
 20
4219.053094861897
 30
0.0
 41
8.0
 42
8.0
 43
8.0
  0
INSERT
  5
1CE
330
1C8
100
AcDbEntity
  8
1
 62
     0
370
    -2
100
AcDbBlockReference
  2
_Open30
 10
20167.26551771404
 20
4219.053094861897
 30
0.0
 41
8.0
 42
8.0
 43
8.0
 50
180.0
  0
MTEXT
  5
1CF
330
1C8
100
AcDbEntity
  8
1
 62
     0
370
     9
100
AcDbMText
 10
20189.76551771294
 20
4211.053094861897
 30
0.0
 40
8.0
 41
0.0
 71
     5
 72
     1
  1
\A1;45
 73
     1
 44
1.0
1001
ACAD
1000
MTEXTBEGIN
1070
    73
1070
     1
1070
    44
1040
1.0
1070
    74
1070
     0
1000
MTEXTEND
  0
POINT
  5
1D0
330
1C8
100
AcDbEntity
  8
Defpoints
 62
     0
100
AcDbPoint
 10
20212.26551771184
 20
4277.58812632259
 30
0.0
  0
POINT
  5
1D1
330
1C8
100
AcDbEntity
  8
Defpoints
 62
     0
100
AcDbPoint
 10
20167.26551771404
 20
4248.580509911137
 30
0.0
  0
POINT
  5
1D2
330
1C8
100
AcDbEntity
  8
Defpoints
 62
     0
100
AcDbPoint
 10
20167.26551771404
 20
4219.053094861897
 30
0.0
  0
ENDBLK
  5
1D3
330
1C8
100
AcDbEntity
  8
0
100
AcDbBlockEnd
  0
BLOCK
  5
1D5
330
1D4
100
AcDbEntity
  8
0
100
AcDbBlockBegin
  2
*D17
 70
     1
 10
0.0
 20
0.0
 30
0.0
  3
*D17
  1

  0
LINE
  5
1D6
330
1D4
100
AcDbEntity
  8
1
 62
     0
370
    -2
100
AcDbLine
 10
20580.27916222623
 20
4438.580509912167
 30
0.0
 11
20630.78791594479
 21
4438.580509912167
 31
0.0
  0
LINE
  5
1D7
330
1D4
100
AcDbEntity
  8
1
 62
     0
370
    -2
100
AcDbLine
 10
20573.77916222623
 20
4408.5787091916
 30
0.0
 11
20630.78791594479
 21
4408.5787091916
 31
0.0
  0
LINE
  5
1D8
330
1D4
100
AcDbEntity
  8
1
 62
     0
370
    -2
100
AcDbLine
 10
20629.78791594479
 20
4430.580509912167
 30
0.0
 11
20629.78791594479
 21
4416.5787091916
 31
0.0
  0
INSERT
  5
1D9
330
1D4
100
AcDbEntity
  8
1
 62
     0
370
    -2
100
AcDbBlockReference
  2
_Open30
 10
20629.78791594479
 20
4438.580509912167
 30
0.0
 41
8.0
 42
8.0
 43
8.0
 50
90.0
  0
INSERT
  5
1DA
330
1D4
100
AcDbEntity
  8
1
 62
     0
370
    -2
100
AcDbBlockReference
  2
_Open30
 10
20629.78791594479
 20
4408.5787091916
 30
0.0
 41
8.0
 42
8.0
 43
8.0
 50
270.0
  0
MTEXT
  5
1DB
330
1D4
100
AcDbEntity
  8
1
 62
     0
370
     9
100
AcDbMText
 10
20637.78791594479
 20
4423.579609551887
 30
0.0
 40
8.0
 41
0.0
 71
     5
 72
     1
  1
\A1;30
 11
0.0000000000000001
 21
1.0
 31
0.0
 73
     1
 44
1.0
1001
ACAD
1000
MTEXTBEGIN
1070
    73
1070
     1
1070
    44
1040
1.0
1070
    74
1070
     0
1000
MTEXTEND
  0
POINT
  5
1DC
330
1D4
100
AcDbEntity
  8
Defpoints
 62
     0
100
AcDbPoint
 10
20575.27916222623
 20
4438.580509912167
 30
0.0
  0
POINT
  5
1DD
330
1D4
100
AcDbEntity
  8
Defpoints
 62
     0
100
AcDbPoint
 10
20568.77916222623
 20
4408.5787091916
 30
0.0
  0
POINT
  5
1DE
330
1D4
100
AcDbEntity
  8
Defpoints
 62
     0
100
AcDbPoint
 10
20629.78791594479
 20
4408.5787091916
 30
0.0
  0
ENDBLK
  5
1DF
330
1D4
100
AcDbEntity
  8
0
100
AcDbBlockEnd
  0
BLOCK
  5
1E1
330
1E0
100
AcDbEntity
  8
0
100
AcDbBlockBegin
  2
*D18
 70
     1
 10
0.0
 20
0.0
 30
0.0
  3
*D18
  1

  0
LINE
  5
1E2
330
1E0
100
AcDbEntity
  8
1
 62
     0
370
    -2
100
AcDbLine
 10
20580.27916222623
 20
4438.580509912167
 30
0.0
 11
20602.58625858441
 21
4438.580509912167
 31
0.0
  0
LINE
  5
1E3
330
1E0
100
AcDbEntity
  8
1
 62
     0
370
    -2
100
AcDbLine
 10
20566.27916222623
 20
4388.580509911967
 30
0.0
 11
20602.58625858441
 21
4388.580509911967
 31
0.0
  0
LINE
  5
1E4
330
1E0
100
AcDbEntity
  8
1
 62
     0
370
    -2
100
AcDbLine
 10
20601.58625858441
 20
4430.580509912167
 30
0.0
 11
20601.58625858441
 21
4396.580509911967
 31
0.0
  0
INSERT
  5
1E5
330
1E0
100
AcDbEntity
  8
1
 62
     0
370
    -2
100
AcDbBlockReference
  2
_Open30
 10
20601.58625858441
 20
4438.580509912167
 30
0.0
 41
8.0
 42
8.0
 43
8.0
 50
90.0
  0
INSERT
  5
1E6
330
1E0
100
AcDbEntity
  8
1
 62
     0
370
    -2
100
AcDbBlockReference
  2
_Open30
 10
20601.58625858441
 20
4388.580509911967
 30
0.0
 41
8.0
 42
8.0
 43
8.0
 50
270.0
  0
MTEXT
  5
1E7
330
1E0
100
AcDbEntity
  8
1
 62
     0
370
     9
100
AcDbMText
 10
20609.58625858441
 20
4413.580509912071
 30
0.0
 40
8.0
 41
0.0
 71
     5
 72
     1
  1
\A1;50
 11
0.0000000000000001
 21
1.0
 31
0.0
 73
     1
 44
1.0
1001
ACAD
1000
MTEXTBEGIN
1070
    73
1070
     1
1070
    44
1040
1.0
1070
    74
1070
     0
1000
MTEXTEND
  0
POINT
  5
1E8
330
1E0
100
AcDbEntity
  8
Defpoints
 62
     0
100
AcDbPoint
 10
20575.27916222623
 20
4438.580509912167
 30
0.0
  0
POINT
  5
1E9
330
1E0
100
AcDbEntity
  8
Defpoints
 62
     0
100
AcDbPoint
 10
20561.27916222623
 20
4388.580509911967
 30
0.0
  0
POINT
  5
1EA
330
1E0
100
AcDbEntity
  8
Defpoints
 62
     0
100
AcDbPoint
 10
20601.58625858441
 20
4388.580509911967
 30
0.0
  0
ENDBLK
  5
1EB
330
1E0
100
AcDbEntity
  8
0
100
AcDbBlockEnd
  0
BLOCK
  5
1ED
330
1EC
100
AcDbEntity
  8
0
100
AcDbBlockBegin
  2
*D19
 70
     1
 10
0.0
 20
0.0
 30
0.0
  3
*D19
  1

  0
LINE
  5
1EE
330
1EC
100
AcDbEntity
  8
1
 62
     0
370
    -2
100
AcDbLine
 10
20381.56821539791
 20
4438.580509912167
 30
0.0
 11
20399.37129934162
 21
4438.580509912167
 31
0.0
  0
LINE
  5
1EF
330
1EC
100
AcDbEntity
  8
1
 62
     0
370
    -2
100
AcDbLine
 10
20369.81821539791
 20
4418.58050991216
 30
0.0
 11
20399.37129934162
 21
4418.58050991216
 31
0.0
  0
LINE
  5
1F0
330
1EC
100
AcDbEntity
  8
1
 62
     0
370
    -2
100
AcDbLine
 10
20398.37129934162
 20
4446.580509912167
 30
0.0
 11
20398.37129934162
 21
4454.580509912167
 31
0.0
  0
LINE
  5
1F1
330
1EC
100
AcDbEntity
  8
1
 62
     0
370
    -2
100
AcDbLine
 10
20398.37129934162
 20
4410.580509912159
 30
0.0
 11
20398.37129934162
 21
4402.580509912159
 31
0.0
  0
INSERT
  5
1F2
330
1EC
100
AcDbEntity
  8
1
 62
     0
370
    -2
100
AcDbBlockReference
  2
_Open30
 10
20398.37129934162
 20
4438.580509912167
 30
0.0
 41
8.0
 42
8.0
 43
8.0
 50
270.0
  0
INSERT
  5
1F3
330
1EC
100
AcDbEntity
  8
1
 62
     0
370
    -2
100
AcDbBlockReference
  2
_Open30
 10
20398.37129934162
 20
4418.58050991216
 30
0.0
 41
8.0
 42
8.0
 43
8.0
 50
90.0
  0
MTEXT
  5
1F4
330
1EC
100
AcDbEntity
  8
1
 62
     0
370
     9
100
AcDbMText
 10
20406.37129934162
 20
4428.580509912167
 30
0.0
 40
8.0
 41
0.0
 71
     5
 72
     1
  1
\A1;20
 11
0.0000000000000001
 21
1.0
 31
0.0
 73
     1
 44
1.0
1001
ACAD
1000
MTEXTBEGIN
1070
    73
1070
     1
1070
    44
1040
1.0
1070
    74
1070
     0
1000
MTEXTEND
  0
POINT
  5
1F5
330
1EC
100
AcDbEntity
  8
Defpoints
 62
     0
100
AcDbPoint
 10
20376.56821539791
 20
4438.580509912167
 30
0.0
  0
POINT
  5
1F6
330
1EC
100
AcDbEntity
  8
Defpoints
 62
     0
100
AcDbPoint
 10
20364.81821539791
 20
4418.58050991216
 30
0.0
  0
POINT
  5
1F7
330
1EC
100
AcDbEntity
  8
Defpoints
 62
     0
100
AcDbPoint
 10
20398.37129934162
 20
4418.58050991216
 30
0.0
  0
ENDBLK
  5
1F8
330
1EC
100
AcDbEntity
  8
0
100
AcDbBlockEnd
  0
BLOCK
  5
1FA
330
1F9
100
AcDbEntity
  8
0
100
AcDbBlockBegin
  2
*D20
 70
     1
 10
0.0
 20
0.0
 30
0.0
  3
*D20
  1

  0
LINE
  5
1FB
330
1F9
100
AcDbEntity
  8
1
 62
     0
370
    -2
100
AcDbLine
 10
20372.06821539791
 20
4418.58050991216
 30
0.0
 11
20398.87129934162
 21
4418.58050991216
 31
0.0
  0
LINE
  5
1FC
330
1F9
100
AcDbEntity
  8
1
 62
     0
370
    -2
100
AcDbLine
 10
20374.07436930215
 20
4258.580509912166
 30
0.0
 11
20398.87129934162
 21
4258.580509912166
 31
0.0
  0
LINE
  5
1FD
330
1F9
100
AcDbEntity
  8
1
 62
     0
370
    -2
100
AcDbLine
 10
20397.87129934162
 20
4410.580509912159
 30
0.0
 11
20397.87129934162
 21
4266.580509912166
 31
0.0
  0
INSERT
  5
1FE
330
1F9
100
AcDbEntity
  8
1
 62
     0
370
    -2
100
AcDbBlockReference
  2
_Open30
 10
20397.87129934162
 20
4418.58050991216
 30
0.0
 41
8.0
 42
8.0
 43
8.0
 50
90.0
  0
INSERT
  5
1FF
330
1F9
100
AcDbEntity
  8
1
 62
     0
370
    -2
100
AcDbBlockReference
  2
_Open30
 10
20397.87129934162
 20
4258.580509912166
 30
0.0
 41
8.0
 42
8.0
 43
8.0
 50
270.0
  0
MTEXT
  5
200
330
1F9
100
AcDbEntity
  8
1
 62
     0
370
     9
100
AcDbMText
 10
20405.87129934162
 20
4338.580509912167
 30
0.0
 40
8.0
 41
0.0
 71
     5
 72
     1
  1
\A1;160
 11
0.0000000000000001
 21
1.0
 31
0.0
 73
     1
 44
1.0
1001
ACAD
1000
MTEXTBEGIN
1070
    73
1070
     1
1070
    44
1040
1.0
1070
    74
1070
     0
1000
MTEXTEND
  0
POINT
  5
201
330
1F9
100
AcDbEntity
  8
Defpoints
 62
     0
100
AcDbPoint
 10
20367.06821539791
 20
4418.58050991216
 30
0.0
  0
POINT
  5
202
330
1F9
100
AcDbEntity
  8
Defpoints
 62
     0
100
AcDbPoint
 10
20369.07436930215
 20
4258.580509912166
 30
0.0
  0
POINT
  5
203
330
1F9
100
AcDbEntity
  8
Defpoints
 62
     0
100
AcDbPoint
 10
20397.87129934162
 20
4258.580509912166
 30
0.0
  0
ENDBLK
  5
204
330
1F9
100
AcDbEntity
  8
0
100
AcDbBlockEnd
  0
BLOCK
  5
206
330
205
100
AcDbEntity
  8
0
100
AcDbBlockBegin
  2
*D21
 70
     1
 10
0.0
 20
0.0
 30
0.0
  3
*D21
  1

  0
LINE
  5
207
330
205
100
AcDbEntity
  8
1
 62
     0
370
    -2
100
AcDbLine
 10
20316.56821539791
 20
4438.580509912167
 30
0.0
 11
20301.15061234653
 21
4438.580509912167
 31
0.0
  0
LINE
  5
208
330
205
100
AcDbEntity
  8
1
 62
     0
370
    -2
100
AcDbLine
 10
20316.56821539791
 20
4238.580509912163
 30
0.0
 11
20301.15061234653
 21
4238.580509912163
 31
0.0
  0
LINE
  5
209
330
205
100
AcDbEntity
  8
1
 62
     0
370
    -2
100
AcDbLine
 10
20302.15061234653
 20
4430.580509912167
 30
0.0
 11
20302.15061234653
 21
4246.580509912163
 31
0.0
  0
INSERT
  5
20A
330
205
100
AcDbEntity
  8
1
 62
     0
370
    -2
100
AcDbBlockReference
  2
_Open30
 10
20302.15061234653
 20
4438.580509912167
 30
0.0
 41
8.0
 42
8.0
 43
8.0
 50
90.0
  0
INSERT
  5
20B
330
205
100
AcDbEntity
  8
1
 62
     0
370
    -2
100
AcDbBlockReference
  2
_Open30
 10
20302.15061234653
 20
4238.580509912163
 30
0.0
 41
8.0
 42
8.0
 43
8.0
 50
270.0
  0
MTEXT
  5
20C
330
205
100
AcDbEntity
  8
1
 62
     0
370
     9
100
AcDbMText
 10
20294.15061234653
 20
4338.580509912168
 30
0.0
 40
8.0
 41
0.0
 71
     5
 72
     1
  1
\A1;200
 11
0.0000000000000001
 21
1.0
 31
0.0
 73
     1
 44
1.0
1001
ACAD
1000
MTEXTBEGIN
1070
    73
1070
     1
1070
    44
1040
1.0
1070
    74
1070
     0
1000
MTEXTEND
  0
POINT
  5
20D
330
205
100
AcDbEntity
  8
Defpoints
 62
     0
100
AcDbPoint
 10
20321.56821539791
 20
4438.580509912167
 30
0.0
  0
POINT
  5
20E
330
205
100
AcDbEntity
  8
Defpoints
 62
     0
100
AcDbPoint
 10
20321.56821539791
 20
4238.580509912163
 30
0.0
  0
POINT
  5
20F
330
205
100
AcDbEntity
  8
Defpoints
 62
     0
100
AcDbPoint
 10
20302.15061234653
 20
4238.580509912163
 30
0.0
  0
ENDBLK
  5
210
330
205
100
AcDbEntity
  8
0
100
AcDbBlockEnd
  0
BLOCK
  5
212
330
211
100
AcDbEntity
  8
0
100
AcDbBlockBegin
  2
*D22
 70
     1
 10
0.0
 20
0.0
 30
0.0
  3
*D22
  1

  0
LINE
  5
213
330
211
100
AcDbEntity
  8
1
 62
     0
370
    -2
100
AcDbLine
 10
20367.06821539791
 20
4253.580509912171
 30
0.0
 11
20367.06821539791
 21
4218.872151854389
 31
0.0
  0
LINE
  5
214
330
211
100
AcDbEntity
  8
1
 62
     0
370
    -2
100
AcDbLine
 10
20376.56821539791
 20
4233.580509912163
 30
0.0
 11
20376.56821539791
 21
4218.872151854389
 31
0.0
  0
LINE
  5
215
330
211
100
AcDbEntity
  8
1
 62
     0
370
    -2
100
AcDbLine
 10
20359.06821539791
 20
4219.872151854389
 30
0.0
 11
20351.06821539791
 21
4219.872151854389
 31
0.0
  0
LINE
  5
216
330
211
100
AcDbEntity
  8
1
 62
     0
370
    -2
100
AcDbLine
 10
20384.56821539791
 20
4219.872151854389
 30
0.0
 11
20416.56821539791
 21
4219.872151854389
 31
0.0
  0
INSERT
  5
217
330
211
100
AcDbEntity
  8
1
 62
     0
370
    -2
100
AcDbBlockReference
  2
_Open30
 10
20367.06821539791
 20
4219.872151854389
 30
0.0
 41
8.0
 42
8.0
 43
8.0
  0
INSERT
  5
218
330
211
100
AcDbEntity
  8
1
 62
     0
370
    -2
100
AcDbBlockReference
  2
_Open30
 10
20376.56821539791
 20
4219.872151854389
 30
0.0
 41
8.0
 42
8.0
 43
8.0
 50
180.0
  0
MTEXT
  5
219
330
211
100
AcDbEntity
  8
1
 62
     0
370
     9
100
AcDbMText
 10
20404.56821539791
 20
4211.872151854389
 30
0.0
 40
8.0
 41
0.0
 71
     5
 72
     1
  1
\A1;9.5
 73
     1
 44
1.0
1001
ACAD
1000
MTEXTBEGIN
1070
    73
1070
     1
1070
    44
1040
1.0
1070
    74
1070
     0
1000
MTEXTEND
  0
POINT
  5
21A
330
211
100
AcDbEntity
  8
Defpoints
 62
     0
100
AcDbPoint
 10
20367.06821539791
 20
4258.58050991217
 30
0.0
  0
POINT
  5
21B
330
211
100
AcDbEntity
  8
Defpoints
 62
     0
100
AcDbPoint
 10
20376.56821539791
 20
4238.580509912163
 30
0.0
  0
POINT
  5
21C
330
211
100
AcDbEntity
  8
Defpoints
 62
     0
100
AcDbPoint
 10
20376.56821539791
 20
4219.872151854389
 30
0.0
  0
ENDBLK
  5
21D
330
211
100
AcDbEntity
  8
0
100
AcDbBlockEnd
  0
BLOCK
  5
21F
330
21E
100
AcDbEntity
  8
0
100
AcDbBlockBegin
  2
*D23
 70
     1
 10
0.0
 20
0.0
 30
0.0
  3
*D23
  1

  0
LINE
  5
220
330
21E
100
AcDbEntity
  8
1
 62
     0
370
    -2
100
AcDbLine
 10
20216.00428942999
 20
4438.580509913196
 30
0.0
 11
20236.73699743336
 21
4438.580509913196
 31
0.0
  0
LINE
  5
221
330
21E
100
AcDbEntity
  8
1
 62
     0
370
    -2
100
AcDbLine
 10
20217.26551771184
 20
4428.580509913197
 30
0.0
 11
20236.73699743336
 21
4428.580509913197
 31
0.0
  0
LINE
  5
222
330
21E
100
AcDbEntity
  8
1
 62
     0
370
    -2
100
AcDbLine
 10
20235.73699743336
 20
4446.580509913196
 30
0.0
 11
20235.73699743336
 21
4454.580509913196
 31
0.0
  0
LINE
  5
223
330
21E
100
AcDbEntity
  8
1
 62
     0
370
    -2
100
AcDbLine
 10
20235.73699743336
 20
4420.580509913196
 30
0.0
 11
20235.73699743336
 21
4412.580509913197
 31
0.0
  0
INSERT
  5
224
330
21E
100
AcDbEntity
  8
1
 62
     0
370
    -2
100
AcDbBlockReference
  2
_Open30
 10
20235.73699743336
 20
4438.580509913196
 30
0.0
 41
8.0
 42
8.0
 43
8.0
 50
270.0
  0
INSERT
  5
225
330
21E
100
AcDbEntity
  8
1
 62
     0
370
    -2
100
AcDbBlockReference
  2
_Open30
 10
20235.73699743336
 20
4428.580509913197
 30
0.0
 41
8.0
 42
8.0
 43
8.0
 50
90.0
  0
MTEXT
  5
226
330
21E
100
AcDbEntity
  8
1
 62
     0
370
     9
100
AcDbMText
 10
20243.73699743336
 20
4433.5805099132
 30
0.0
 40
8.0
 41
0.0
 71
     5
 72
     1
  1
\A1;10
 11
0.0000000000000001
 21
1.0
 31
0.0
 73
     1
 44
1.0
1001
ACAD
1000
MTEXTBEGIN
1070
    73
1070
     1
1070
    44
1040
1.0
1070
    74
1070
     0
1000
MTEXTEND
  0
POINT
  5
227
330
21E
100
AcDbEntity
  8
Defpoints
 62
     0
100
AcDbPoint
 10
20211.00428942999
 20
4438.580509913196
 30
0.0
  0
POINT
  5
228
330
21E
100
AcDbEntity
  8
Defpoints
 62
     0
100
AcDbPoint
 10
20212.26551771184
 20
4428.580509913197
 30
0.0
  0
POINT
  5
229
330
21E
100
AcDbEntity
  8
Defpoints
 62
     0
100
AcDbPoint
 10
20235.73699743336
 20
4428.580509913197
 30
0.0
  0
ENDBLK
  5
22A
330
21E
100
AcDbEntity
  8
0
100
AcDbBlockEnd
  0
BLOCK
  5
22C
330
22B
100
AcDbEntity
  8
0
100
AcDbBlockBegin
  2
*D24
 70
     1
 10
0.0
 20
0.0
 30
0.0
  3
*D24
  1

  0
LINE
  5
22D
330
22B
100
AcDbEntity
  8
1
 62
     0
370
    -2
100
AcDbLine
 10
20162.26551771404
 20
4238.580509911137
 30
0.0
 11
20146.98114710517
 21
4238.580509911137
 31
0.0
  0
LINE
  5
22E
330
22B
100
AcDbEntity
  8
1
 62
     0
370
    -2
100
AcDbLine
 10
20162.26551771404
 20
4248.580509911137
 30
0.0
 11
20146.98114710517
 21
4248.580509911137
 31
0.0
  0
LINE
  5
22F
330
22B
100
AcDbEntity
  8
1
 62
     0
370
    -2
100
AcDbLine
 10
20147.98114710517
 20
4230.580509911137
 30
0.0
 11
20147.98114710517
 21
4222.580509911137
 31
0.0
  0
LINE
  5
230
330
22B
100
AcDbEntity
  8
1
 62
     0
370
    -2
100
AcDbLine
 10
20147.98114710517
 20
4256.580509911137
 30
0.0
 11
20147.98114710517
 21
4264.580509911137
 31
0.0
  0
INSERT
  5
231
330
22B
100
AcDbEntity
  8
1
 62
     0
370
    -2
100
AcDbBlockReference
  2
_Open30
 10
20147.98114710517
 20
4238.580509911137
 30
0.0
 41
8.0
 42
8.0
 43
8.0
 50
90.0
  0
INSERT
  5
232
330
22B
100
AcDbEntity
  8
1
 62
     0
370
    -2
100
AcDbBlockReference
  2
_Open30
 10
20147.98114710517
 20
4248.580509911137
 30
0.0
 41
8.0
 42
8.0
 43
8.0
 50
270.0
  0
MTEXT
  5
233
330
22B
100
AcDbEntity
  8
1
 62
     0
370
     9
100
AcDbMText
 10
20139.98114710517
 20
4243.580509911141
 30
0.0
 40
8.0
 41
0.0
 71
     5
 72
     1
  1
\A1;10
 11
0.0000000000000001
 21
1.0
 31
0.0
 73
     1
 44
1.0
1001
ACAD
1000
MTEXTBEGIN
1070
    73
1070
     1
1070
    44
1040
1.0
1070
    74
1070
     0
1000
MTEXTEND
  0
POINT
  5
234
330
22B
100
AcDbEntity
  8
Defpoints
 62
     0
100
AcDbPoint
 10
20167.26551771404
 20
4238.580509911137
 30
0.0
  0
POINT
  5
235
330
22B
100
AcDbEntity
  8
Defpoints
 62
     0
100
AcDbPoint
 10
20167.26551771404
 20
4248.580509911137
 30
0.0
  0
POINT
  5
236
330
22B
100
AcDbEntity
  8
Defpoints
 62
     0
100
AcDbPoint
 10
20147.98114710517
 20
4248.580509911137
 30
0.0
  0
ENDBLK
  5
237
330
22B
100
AcDbEntity
  8
0
100
AcDbBlockEnd
  0
BLOCK
  5
239
330
238
100
AcDbEntity
  8
0
100
AcDbBlockBegin
  2
*D25
 70
     1
 10
0.0
 20
0.0
 30
0.0
  3
*D25
  1

  0
LINE
  5
23A
330
238
100
AcDbEntity
  8
1
 62
     0
370
    -2
100
AcDbLine
 10
20162.26551771404
 20
4248.580509911137
 30
0.0
 11
20146.98114710517
 21
4248.580509911137
 31
0.0
  0
LINE
  5
23B
330
238
100
AcDbEntity
  8
1
 62
     0
370
    -2
100
AcDbLine
 10
20162.26551771404
 20
4315.577694930236
 30
0.0
 11
20146.98114710517
 21
4315.577694930236
 31
0.0
  0
LINE
  5
23C
330
238
100
AcDbEntity
  8
1
 62
     0
370
    -2
100
AcDbLine
 10
20147.98114710517
 20
4256.580509911137
 30
0.0
 11
20147.98114710517
 21
4307.577694930235
 31
0.0
  0
INSERT
  5
23D
330
238
100
AcDbEntity
  8
1
 62
     0
370
    -2
100
AcDbBlockReference
  2
_Open30
 10
20147.98114710517
 20
4248.580509911137
 30
0.0
 41
8.0
 42
8.0
 43
8.0
 50
270.0
  0
INSERT
  5
23E
330
238
100
AcDbEntity
  8
1
 62
     0
370
    -2
100
AcDbBlockReference
  2
_Open30
 10
20147.98114710517
 20
4315.577694930236
 30
0.0
 41
8.0
 42
8.0
 43
8.0
 50
90.0
  0
MTEXT
  5
23F
330
238
100
AcDbEntity
  8
1
 62
     0
370
     9
100
AcDbMText
 10
20139.98114710517
 20
4282.079102420691
 30
0.0
 40
8.0
 41
0.0
 71
     5
 72
     1
  1
\A1;67
 11
0.0000000000000001
 21
1.0
 31
0.0
 73
     1
 44
1.0
1001
ACAD
1000
MTEXTBEGIN
1070
    73
1070
     1
1070
    44
1040
1.0
1070
    74
1070
     0
1000
MTEXTEND
  0
POINT
  5
240
330
238
100
AcDbEntity
  8
Defpoints
 62
     0
100
AcDbPoint
 10
20167.26551771404
 20
4248.580509911137
 30
0.0
  0
POINT
  5
241
330
238
100
AcDbEntity
  8
Defpoints
 62
     0
100
AcDbPoint
 10
20167.26551771404
 20
4315.577694930236
 30
0.0
  0
POINT
  5
242
330
238
100
AcDbEntity
  8
Defpoints
 62
     0
100
AcDbPoint
 10
20147.98114710517
 20
4315.577694930236
 30
0.0
  0
ENDBLK
  5
243
330
238
100
AcDbEntity
  8
0
100
AcDbBlockEnd
  0
BLOCK
  5
245
330
244
100
AcDbEntity
  8
0
100
AcDbBlockBegin
  2
*D26
 70
     1
 10
0.0
 20
0.0
 30
0.0
  3
*D26
  1

  0
LINE
  5
246
330
244
100
AcDbEntity
  8
1
 62
     0
370
    -2
100
AcDbLine
 10
20162.26551771404
 20
4315.577694930236
 30
0.0
 11
20146.98114710517
 21
4315.577694930236
 31
0.0
  0
LINE
  5
247
330
244
100
AcDbEntity
  8
1
 62
     0
370
    -2
100
AcDbLine
 10
20162.26551771404
 20
4399.572893501743
 30
0.0
 11
20146.98114710517
 21
4399.572893501743
 31
0.0
  0
LINE
  5
248
330
244
100
AcDbEntity
  8
1
 62
     0
370
    -2
100
AcDbLine
 10
20147.98114710517
 20
4323.577694930235
 30
0.0
 11
20147.98114710517
 21
4391.572893501744
 31
0.0
  0
INSERT
  5
249
330
244
100
AcDbEntity
  8
1
 62
     0
370
    -2
100
AcDbBlockReference
  2
_Open30
 10
20147.98114710517
 20
4315.577694930236
 30
0.0
 41
8.0
 42
8.0
 43
8.0
 50
270.0
  0
INSERT
  5
24A
330
244
100
AcDbEntity
  8
1
 62
     0
370
    -2
100
AcDbBlockReference
  2
_Open30
 10
20147.98114710517
 20
4399.572893501743
 30
0.0
 41
8.0
 42
8.0
 43
8.0
 50
90.0
  0
MTEXT
  5
24B
330
244
100
AcDbEntity
  8
1
 62
     0
370
     9
100
AcDbMText
 10
20139.98114710517
 20
4357.575294215993
 30
0.0
 40
8.0
 41
0.0
 71
     5
 72
     1
  1
\A1;84
 11
0.0000000000000001
 21
1.0
 31
0.0
 73
     1
 44
1.0
1001
ACAD
1000
MTEXTBEGIN
1070
    73
1070
     1
1070
    44
1040
1.0
1070
    74
1070
     0
1000
MTEXTEND
  0
POINT
  5
24C
330
244
100
AcDbEntity
  8
Defpoints
 62
     0
100
AcDbPoint
 10
20167.26551771404
 20
4315.577694930236
 30
0.0
  0
POINT
  5
24D
330
244
100
AcDbEntity
  8
Defpoints
 62
     0
100
AcDbPoint
 10
20167.26551771404
 20
4399.572893501743
 30
0.0
  0
POINT
  5
24E
330
244
100
AcDbEntity
  8
Defpoints
 62
     0
100
AcDbPoint
 10
20147.98114710517
 20
4399.572893501743
 30
0.0
  0
ENDBLK
  5
24F
330
244
100
AcDbEntity
  8
0
100
AcDbBlockEnd
  0
BLOCK
  5
251
330
250
100
AcDbEntity
  8
0
100
AcDbBlockBegin
  2
*D27
 70
     1
 10
0.0
 20
0.0
 30
0.0
  3
*D27
  1

  0
LINE
  5
252
330
250
100
AcDbEntity
  8
1
 62
     0
370
    -2
100
AcDbLine
 10
20848.78343516909
 20
4435.851276907712
 30
0.0
 11
20851.11693642815
 21
4449.085220174225
 31
0.0
  0
LINE
  5
253
330
250
100
AcDbEntity
  8
1
 62
     0
370
    -2
100
AcDbLine
 10
20739.437897669
 20
4443.580509913195
 30
0.0
 11
20739.437897669
 21
4458.855870019124
 31
0.0
  0
ARC
  5
254
330
250
100
AcDbEntity
  8
1
 62
     0
370
    -2
100
AcDbCircle
 10
20739.43789766899
 20
3815.72191802702
 30
0.0
 40
642.1339519921043
100
AcDbArc
 50
80.71382177984659
 51
89.28617822015359
  0
INSERT
  5
255
330
250
100
AcDbEntity
  8
1
 62
     0
370
    -2
100
AcDbBlockReference
  2
_Open30
 10
20850.94328825048
 20
4448.100412421213
 30
0.0
 41
8.0
 42
8.0
 43
8.0
 50
350.3569108899236
  0
INSERT
  5
256
330
250
100
AcDbEntity
  8
1
 62
     0
370
    -2
100
AcDbBlockReference
  2
_Open30
 10
20739.437897669
 20
4457.855870019123
 30
0.0
 41
8.0
 42
8.0
 43
8.0
 50
179.6430891100766
  0
MTEXT
  5
257
330
250
100
AcDbEntity
  8
1
 62
     0
370
     9
100
AcDbMText
 10
20796.10080514033
 20
4463.381914050987
 30
0.0
 40
8.0
 41
0.0
 71
     5
 72
     1
  1
\A1;10\U+00B0
 11
0.996194698091746
 21
-0.0871557427476537
 31
0.0
 73
     1
 44
1.0
1001
ACAD
1000
MTEXTBEGIN
1070
    73
1070
     1
1070
    44
1040
1.0
1070
    74
1070
     0
1000
MTEXTEND
  0
POINT
  5
258
330
250
100
AcDbEntity
  8
Defpoints
 62
     0
100
AcDbPoint
 10
20813.9850994145
 20
4453.513989954
 30
0.0
  0
POINT
  5
259
330
250
100
AcDbEntity
  8
Defpoints
 62
     0
100
AcDbPoint
 10
20739.437897669
 20
4438.580509913196
 30
0.0
  0
POINT
  5
25A
330
250
100
AcDbEntity
  8
Defpoints
 62
     0
100
AcDbPoint
 10
20847.91519428076
 20
4430.927238142651
 30
0.0
  0
POINT
  5
25B
330
250
100
AcDbEntity
  8
Defpoints
 62
     0
100
AcDbPoint
 10
20813.18555874738
 20
4233.965687540201
 30
0.0
  0
POINT
  5
25C
330
250
100
AcDbEntity
  8
Defpoints
 62
     0
100
AcDbPoint
 10
20739.437897669
 20
4238.580509911137
 30
0.0
  0
ENDBLK
  5
25D
330
250
100
AcDbEntity
  8
0
100
AcDbBlockEnd
  0
BLOCK
  5
25F
330
25E
100
AcDbEntity
  8
0
100
AcDbBlockBegin
  2
*D28
 70
     1
 10
0.0
 20
0.0
 30
0.0
  3
*D28
  1

  0
LINE
  5
260
330
25E
100
AcDbEntity
  8
1
 62
     0
370
    -2
100
AcDbLine
 10
20736.9378976685
 20
4443.580509913196
 30
0.0
 11
20736.9378976685
 21
4485.491450195272
 31
0.0
  0
LINE
  5
261
330
25E
100
AcDbEntity
  8
1
 62
     0
370
    -2
100
AcDbLine
 10
20861.70250282293
 20
4433.496163655312
 30
0.0
 11
20861.70250282293
 21
4485.491450195272
 31
0.0
  0
LINE
  5
262
330
25E
100
AcDbEntity
  8
1
 62
     0
370
    -2
100
AcDbLine
 10
20744.9378976685
 20
4484.491450195273
 30
0.0
 11
20853.70250282293
 21
4484.491450195273
 31
0.0
  0
INSERT
  5
263
330
25E
100
AcDbEntity
  8
1
 62
     0
370
    -2
100
AcDbBlockReference
  2
_Open30
 10
20736.9378976685
 20
4484.491450195273
 30
0.0
 41
8.0
 42
8.0
 43
8.0
 50
180.0
  0
INSERT
  5
264
330
25E
100
AcDbEntity
  8
1
 62
     0
370
    -2
100
AcDbBlockReference
  2
_Open30
 10
20861.70250282293
 20
4484.491450195273
 30
0.0
 41
8.0
 42
8.0
 43
8.0
  0
MTEXT
  5
265
330
25E
100
AcDbEntity
  8
1
 62
     0
370
     9
100
AcDbMText
 10
20799.32020024572
 20
4492.491450195273
 30
0.0
 40
8.0
 41
0.0
 71
     5
 72
     1
  1
\A1;124.8
 73
     1
 44
1.0
1001
ACAD
1000
MTEXTBEGIN
1070
    73
1070
     1
1070
    44
1040
1.0
1070
    74
1070
     0
1000
MTEXTEND
  0
POINT
  5
266
330
25E
100
AcDbEntity
  8
Defpoints
 62
     0
100
AcDbPoint
 10
20736.9378976685
 20
4438.580509913196
 30
0.0
  0
POINT
  5
267
330
25E
100
AcDbEntity
  8
Defpoints
 62
     0
100
AcDbPoint
 10
20861.70250282293
 20
4428.496163655312
 30
0.0
  0
POINT
  5
268
330
25E
100
AcDbEntity
  8
Defpoints
 62
     0
100
AcDbPoint
 10
20861.70250282293
 20
4484.491450195273
 30
0.0
  0
ENDBLK
  5
269
330
25E
100
AcDbEntity
  8
0
100
AcDbBlockEnd
  0
BLOCK
  5
26B
330
26A
100
AcDbEntity
  8
0
100
AcDbBlockBegin
  2
*D29
 70
     1
 10
0.0
 20
0.0
 30
0.0
  3
*D29
  1

  0
LINE
  5
26C
330
26A
100
AcDbEntity
  8
1
 62
     0
370
    -2
100
AcDbLine
 10
20367.06821539791
 20
4253.580509912171
 30
0.0
 11
20367.06821539791
 21
4218.872151854389
 31
0.0
  0
LINE
  5
26D
330
26A
100
AcDbEntity
  8
1
 62
     0
370
    -2
100
AcDbLine
 10
20331.06821539791
 20
4253.580509912171
 30
0.0
 11
20331.06821539791
 21
4218.872151854389
 31
0.0
  0
LINE
  5
26E
330
26A
100
AcDbEntity
  8
1
 62
     0
370
    -2
100
AcDbLine
 10
20359.06821539791
 20
4219.872151854389
 30
0.0
 11
20339.06821539791
 21
4219.872151854389
 31
0.0
  0
INSERT
  5
26F
330
26A
100
AcDbEntity
  8
1
 62
     0
370
    -2
100
AcDbBlockReference
  2
_Open30
 10
20367.06821539791
 20
4219.872151854389
 30
0.0
 41
8.0
 42
8.0
 43
8.0
  0
INSERT
  5
270
330
26A
100
AcDbEntity
  8
1
 62
     0
370
    -2
100
AcDbBlockReference
  2
_Open30
 10
20331.06821539791
 20
4219.872151854389
 30
0.0
 41
8.0
 42
8.0
 43
8.0
 50
180.0
  0
MTEXT
  5
271
330
26A
100
AcDbEntity
  8
1
 62
     0
370
     9
100
AcDbMText
 10
20349.06821539791
 20
4211.872151854389
 30
0.0
 40
8.0
 41
0.0
 71
     5
 72
     1
  1
\A1;36
 73
     1
 44
1.0
1001
ACAD
1000
MTEXTBEGIN
1070
    73
1070
     1
1070
    44
1040
1.0
1070
    74
1070
     0
1000
MTEXTEND
  0
POINT
  5
272
330
26A
100
AcDbEntity
  8
Defpoints
 62
     0
100
AcDbPoint
 10
20367.06821539791
 20
4258.58050991217
 30
0.0
  0
POINT
  5
273
330
26A
100
AcDbEntity
  8
Defpoints
 62
     0
100
AcDbPoint
 10
20331.06821539791
 20
4258.58050991217
 30
0.0
  0
POINT
  5
274
330
26A
100
AcDbEntity
  8
Defpoints
 62
     0
100
AcDbPoint
 10
20331.06821539791
 20
4219.872151854389
 30
0.0
  0
ENDBLK
  5
275
330
26A
100
AcDbEntity
  8
0
100
AcDbBlockEnd
  0
BLOCK
  5
277
330
276
100
AcDbEntity
  8
0
100
AcDbBlockBegin
  2
*D30
 70
     1
 10
0.0
 20
0.0
 30
0.0
  3
*D30
  1

  0
LINE
  5
278
330
276
100
AcDbEntity
  8
1
 62
     0
370
    -2
100
AcDbLine
 10
20217.26551771184
 20
4238.580509911137
 30
0.0
 11
20217.26551771184
 21
4197.215489736335
 31
0.0
  0
LINE
  5
279
330
276
100
AcDbEntity
  8
1
 62
     0
370
    -2
100
AcDbLine
 10
20162.26551771404
 20
4238.580509911137
 30
0.0
 11
20162.26551771404
 21
4197.215489736335
 31
0.0
  0
LINE
  5
27A
330
276
100
AcDbEntity
  8
1
 62
     0
370
    -2
100
AcDbLine
 10
20209.26551771184
 20
4198.215489736335
 30
0.0
 11
20170.26551771404
 21
4198.215489736335
 31
0.0
  0
INSERT
  5
27B
330
276
100
AcDbEntity
  8
1
 62
     0
370
    -2
100
AcDbBlockReference
  2
_Open30
 10
20217.26551771184
 20
4198.215489736335
 30
0.0
 41
8.0
 42
8.0
 43
8.0
  0
INSERT
  5
27C
330
276
100
AcDbEntity
  8
1
 62
     0
370
    -2
100
AcDbBlockReference
  2
_Open30
 10
20162.26551771404
 20
4198.215489736335
 30
0.0
 41
8.0
 42
8.0
 43
8.0
 50
180.0
  0
MTEXT
  5
27D
330
276
100
AcDbEntity
  8
1
 62
     0
370
     9
100
AcDbMText
 10
20189.76551771294
 20
4190.215489736335
 30
0.0
 40
8.0
 41
0.0
 71
     5
 72
     1
  1
\A1;55
 73
     1
 44
1.0
1001
ACAD
1000
MTEXTBEGIN
1070
    73
1070
     1
1070
    44
1040
1.0
1070
    74
1070
     0
1000
MTEXTEND
  0
POINT
  5
27E
330
276
100
AcDbEntity
  8
Defpoints
 62
     0
100
AcDbPoint
 10
20217.26551771184
 20
4243.580509911137
 30
0.0
  0
POINT
  5
27F
330
276
100
AcDbEntity
  8
Defpoints
 62
     0
100
AcDbPoint
 10
20162.26551771404
 20
4243.580509911137
 30
0.0
  0
POINT
  5
280
330
276
100
AcDbEntity
  8
Defpoints
 62
     0
100
AcDbPoint
 10
20162.26551771404
 20
4198.215489736335
 30
0.0
  0
ENDBLK
  5
281
330
276
100
AcDbEntity
  8
0
100
AcDbBlockEnd
  0
BLOCK
  5
283
330
282
100
AcDbEntity
  8
0
100
AcDbBlockBegin
  2
*D31
 70
     1
 10
0.0
 20
0.0
 30
0.0
  3
*D31
  1

  0
LINE
  5
284
330
282
100
AcDbEntity
  8
1
 62
     0
370
    -2
100
AcDbLine
 10
20818.43594684591
 20
4559.507191626827
 30
0.0
 11
20852.13272041071
 21
4559.507191626827
 31
0.0
  0
LINE
  5
285
330
282
100
AcDbEntity
  8
1
 62
     0
370
    -2
100
AcDbLine
 10
20773.14911640574
 20
4620.708830427119
 30
0.0
 11
20783.00109953653
 21
4652.933215247753
 31
0.0
  0
ARC
  5
286
330
282
100
AcDbEntity
  8
1
 62
     0
370
    -2
100
AcDbCircle
 10
20754.43789766894
 20
4559.507191626827
 30
0.0
 40
96.69482274177568
100
AcDbArc
 50
4.741691993125659
 51
68.25830800687632
  0
INSERT
  5
287
330
282
100
AcDbEntity
  8
1
 62
     0
370
    -2
100
AcDbBlockReference
  2
_Open30
 10
20851.13272041072
 20
4559.507191626827
 30
0.0
 41
8.0
 42
8.0
 43
8.0
 50
272.3708459965629
  0
INSERT
  5
288
330
282
100
AcDbEntity
  8
1
 62
     0
370
    -2
100
AcDbBlockReference
  2
_Open30
 10
20782.70872783181
 20
4651.976910491789
 30
0.0
 41
8.0
 42
8.0
 43
8.0
 50
160.629154003439
  0
MTEXT
  5
289
330
282
100
AcDbEntity
  8
1
 62
     0
370
     9
100
AcDbMText
 10
20838.59754920102
 20
4621.782057848528
 30
0.0
 40
8.0
 41
0.0
 71
     5
 72
     1
  1
\A1;73\U+00B0
 11
0.5948227867513602
 21
-0.8038568606172034
 31
0.0
 73
     1
 44
1.0
1001
ACAD
1000
MTEXTBEGIN
1070
    73
1070
     1
1070
    44
1040
1.0
1070
    74
1070
     0
1000
MTEXTEND
  0
POINT
  5
28A
330
282
100
AcDbEntity
  8
Defpoints
 62
     0
100
AcDbPoint
 10
20842.54271139213
 20
4599.349763630466
 30
0.0
  0
POINT
  5
28B
330
282
100
AcDbEntity
  8
Defpoints
 62
     0
100
AcDbPoint
 10
20754.43789766894
 20
4559.507191626827
 30
0.0
  0
POINT
  5
28C
330
282
100
AcDbEntity
  8
Defpoints
 62
     0
100
AcDbPoint
 10
20754.43789766894
 20
4559.507191626827
 30
0.0
  0
POINT
  5
28D
330
282
100
AcDbEntity
  8
Defpoints
 62
     0
100
AcDbPoint
 10
20813.4359468459
 20
4559.507191626826
 30
0.0
  0
POINT
  5
28E
330
282
100
AcDbEntity
  8
Defpoints
 62
     0
100
AcDbPoint
 10
20771.68725788212
 20
4615.927306647303
 30
0.0
  0
ENDBLK
  5
28F
330
282
100
AcDbEntity
  8
0
100
AcDbBlockEnd
  0
BLOCK
  5
65D
330
653
100
AcDbEntity
  8
0
100
AcDbBlockBegin
  2
*D33
 70
     1
 10
0.0
 20
0.0
 30
0.0
  3
*D33
  1

  0
LINE
  5
717
330
653
100
AcDbEntity
  8
1
 62
     0
370
    -2
100
AcDbLine
 10
523.4815196251819
 20
367.1351968946649
 30
0.0
 11
580.4902733437429
 21
367.1351968946649
 31
0.0
  0
LINE
  5
718
330
653
100
AcDbEntity
  8
1
 62
     0
370
    -2
100
AcDbLine
 10
523.4815196251819
 20
227.1387983358011
 30
0.0
 11
580.4902733437428
 21
227.138798335801
 31
0.0
  0
LINE
  5
719
330
653
100
AcDbEntity
  8
1
 62
     0
370
    -2
100
AcDbLine
 10
579.4902733437429
 20
359.1351968946649
 30
0.0
 11
579.4902733437428
 21
235.138798335801
 31
0.0
  0
INSERT
  5
71A
330
653
100
AcDbEntity
  8
1
 62
     0
370
    -2
100
AcDbBlockReference
  2
_Open30
 10
579.4902733437429
 20
367.1351968946649
 30
0.0
 41
8.0
 42
8.0
 43
8.0
 50
90.0
  0
INSERT
  5
71B
330
653
100
AcDbEntity
  8
1
 62
     0
370
    -2
100
AcDbBlockReference
  2
_Open30
 10
579.4902733437428
 20
227.138798335801
 30
0.0
 41
8.0
 42
8.0
 43
8.0
 50
270.0
  0
MTEXT
  5
71C
330
653
100
AcDbEntity
  8
1
 62
     0
370
     9
100
AcDbMText
 10
587.4902733437428
 20
297.1369976152331
 30
0.0
 40
8.0
 41
0.0
 71
     5
 72
     1
  1
\A1;140
 11
0.0000000000000001
 21
1.0
 31
0.0
 73
     1
 44
1.0
1001
ACAD
1000
MTEXTBEGIN
1070
    73
1070
     1
1070
    44
1040
1.0
1070
    74
1070
     0
1000
MTEXTEND
  0
POINT
  5
71D
330
653
100
AcDbEntity
  8
Defpoints
 62
     0
100
AcDbPoint
 10
518.4815196251819
 20
367.1351968946649
 30
0.0
  0
POINT
  5
71E
330
653
100
AcDbEntity
  8
Defpoints
 62
     0
100
AcDbPoint
 10
518.4815196251819
 20
227.1387983358011
 30
0.0
  0
POINT
  5
71F
330
653
100
AcDbEntity
  8
Defpoints
 62
     0
100
AcDbPoint
 10
579.4902733437428
 20
227.138798335801
 30
0.0
  0
ENDBLK
  5
65E
330
653
100
AcDbEntity
  8
0
100
AcDbBlockEnd
  0
BLOCK
  5
66A
330
65F
100
AcDbEntity
  8
0
100
AcDbBlockBegin
  2
*D34
 70
     1
 10
0.0
 20
0.0
 30
0.0
  3
*D34
  1

  0
LINE
  5
720
330
65F
100
AcDbEntity
  8
1
 62
     0
370
    -2
100
AcDbLine
 10
524.9815196251819
 20
402.136997615232
 30
0.0
 11
524.9815196251819
 21
413.1552648832523
 31
0.0
  0
LINE
  5
721
330
65F
100
AcDbEntity
  8
1
 62
     0
370
    -2
100
AcDbLine
 10
518.4815196251819
 20
372.1351968946649
 30
0.0
 11
518.4815196251819
 21
413.1552648832523
 31
0.0
  0
LINE
  5
722
330
65F
100
AcDbEntity
  8
1
 62
     0
370
    -2
100
AcDbLine
 10
510.4815196251819
 20
412.1552648832524
 30
0.0
 11
502.4815196251819
 21
412.1552648832524
 31
0.0
  0
LINE
  5
723
330
65F
100
AcDbEntity
  8
1
 62
     0
370
    -2
100
AcDbLine
 10
532.9815196251819
 20
412.1552648832524
 30
0.0
 11
571.9815196251819
 21
412.1552648832524
 31
0.0
  0
INSERT
  5
724
330
65F
100
AcDbEntity
  8
1
 62
     0
370
    -2
100
AcDbBlockReference
  2
_Open30
 10
518.4815196251819
 20
412.1552648832524
 30
0.0
 41
8.0
 42
8.0
 43
8.0
  0
INSERT
  5
725
330
65F
100
AcDbEntity
  8
1
 62
     0
370
    -2
100
AcDbBlockReference
  2
_Open30
 10
524.9815196251819
 20
412.1552648832524
 30
0.0
 41
8.0
 42
8.0
 43
8.0
 50
180.0
  0
MTEXT
  5
726
330
65F
100
AcDbEntity
  8
1
 62
     0
370
     9
100
AcDbMText
 10
559.9815196251819
 20
420.1552648832523
 30
0.0
 40
8.0
 41
0.0
 71
     5
 72
     1
  1
\A1;6.5
 73
     1
 44
1.0
1001
ACAD
1000
MTEXTBEGIN
1070
    73
1070
     1
1070
    44
1040
1.0
1070
    74
1070
     0
1000
MTEXTEND
  0
POINT
  5
727
330
65F
100
AcDbEntity
  8
Defpoints
 62
     0
100
AcDbPoint
 10
524.9815196251819
 20
397.1369976152321
 30
0.0
  0
POINT
  5
728
330
65F
100
AcDbEntity
  8
Defpoints
 62
     0
100
AcDbPoint
 10
518.4815196251819
 20
367.1351968946649
 30
0.0
  0
POINT
  5
729
330
65F
100
AcDbEntity
  8
Defpoints
 62
     0
100
AcDbPoint
 10
518.4815196251819
 20
412.1552648832524
 30
0.0
  0
ENDBLK
  5
66B
330
65F
100
AcDbEntity
  8
0
100
AcDbBlockEnd
  0
BLOCK
  5
676
330
66C
100
AcDbEntity
  8
0
100
AcDbBlockBegin
  2
*D35
 70
     1
 10
0.0
 20
0.0
 30
0.0
  3
*D35
  1

  0
LINE
  5
72A
330
66C
100
AcDbEntity
  8
1
 62
     0
370
    -2
100
AcDbLine
 10
425.9815196279649
 20
192.1369976142025
 30
0.0
 11
425.9815196279649
 21
179.2122597218924
 31
0.0
  0
LINE
  5
72B
330
66C
100
AcDbEntity
  8
1
 62
     0
370
    -2
100
AcDbLine
 10
510.9815196251819
 20
192.1369976152284
 30
0.0
 11
510.9815196251819
 21
179.2122597218924
 31
0.0
  0
LINE
  5
72C
330
66C
100
AcDbEntity
  8
1
 62
     0
370
    -2
100
AcDbLine
 10
433.981519627965
 20
180.2122597218924
 30
0.0
 11
502.9815196251819
 21
180.2122597218924
 31
0.0
  0
INSERT
  5
72D
330
66C
100
AcDbEntity
  8
1
 62
     0
370
    -2
100
AcDbBlockReference
  2
_Open30
 10
425.9815196279649
 20
180.2122597218924
 30
0.0
 41
8.0
 42
8.0
 43
8.0
 50
180.0
  0
INSERT
  5
72E
330
66C
100
AcDbEntity
  8
1
 62
     0
370
    -2
100
AcDbBlockReference
  2
_Open30
 10
510.9815196251819
 20
180.2122597218924
 30
0.0
 41
8.0
 42
8.0
 43
8.0
  0
MTEXT
  5
72F
330
66C
100
AcDbEntity
  8
1
 62
     0
370
     9
100
AcDbMText
 10
468.4815196265734
 20
172.2122597218924
 30
0.0
 40
8.0
 41
0.0
 71
     5
 72
     1
  1
\A1;85
 73
     1
 44
1.0
1001
ACAD
1000
MTEXTBEGIN
1070
    73
1070
     1
1070
    44
1040
1.0
1070
    74
1070
     0
1000
MTEXTEND
  0
POINT
  5
730
330
66C
100
AcDbEntity
  8
Defpoints
 62
     0
100
AcDbPoint
 10
425.9815196279649
 20
197.1369976142025
 30
0.0
  0
POINT
  5
731
330
66C
100
AcDbEntity
  8
Defpoints
 62
     0
100
AcDbPoint
 10
510.9815196251819
 20
197.1369976152284
 30
0.0
  0
POINT
  5
732
330
66C
100
AcDbEntity
  8
Defpoints
 62
     0
100
AcDbPoint
 10
510.9815196251819
 20
180.2122597218924
 30
0.0
  0
ENDBLK
  5
677
330
66C
100
AcDbEntity
  8
0
100
AcDbBlockEnd
  0
BLOCK
  5
683
330
678
100
AcDbEntity
  8
0
100
AcDbBlockBegin
  2
*D36
 70
     1
 10
0.0
 20
0.0
 30
0.0
  3
*D36
  1

  0
LINE
  5
733
330
678
100
AcDbEntity
  8
1
 62
     0
370
    -2
100
AcDbLine
 10
510.9815196251819
 20
192.1369976152284
 30
0.0
 11
510.9815196251819
 21
179.2122597218906
 31
0.0
  0
LINE
  5
734
330
678
100
AcDbEntity
  8
1
 62
     0
370
    -2
100
AcDbLine
 10
524.9815196251819
 20
192.1369976152284
 30
0.0
 11
524.9815196251819
 21
179.2122597218906
 31
0.0
  0
LINE
  5
735
330
678
100
AcDbEntity
  8
1
 62
     0
370
    -2
100
AcDbLine
 10
502.9815196251819
 20
180.2122597218906
 30
0.0
 11
494.9815196251819
 21
180.2122597218906
 31
0.0
  0
LINE
  5
736
330
678
100
AcDbEntity
  8
1
 62
     0
370
    -2
100
AcDbLine
 10
532.9815196251819
 20
180.2122597218906
 30
0.0
 11
540.9815196251819
 21
180.2122597218906
 31
0.0
  0
INSERT
  5
737
330
678
100
AcDbEntity
  8
1
 62
     0
370
    -2
100
AcDbBlockReference
  2
_Open30
 10
510.9815196251819
 20
180.2122597218906
 30
0.0
 41
8.0
 42
8.0
 43
8.0
  0
INSERT
  5
738
330
678
100
AcDbEntity
  8
1
 62
     0
370
    -2
100
AcDbBlockReference
  2
_Open30
 10
524.9815196251819
 20
180.2122597218906
 30
0.0
 41
8.0
 42
8.0
 43
8.0
 50
180.0
  0
MTEXT
  5
739
330
678
100
AcDbEntity
  8
1
 62
     0
370
     9
100
AcDbMText
 10
517.9815196251819
 20
172.2122597218906
 30
0.0
 40
8.0
 41
0.0
 71
     5
 72
     1
  1
\A1;14
 73
     1
 44
1.0
1001
ACAD
1000
MTEXTBEGIN
1070
    73
1070
     1
1070
    44
1040
1.0
1070
    74
1070
     0
1000
MTEXTEND
  0
POINT
  5
73A
330
678
100
AcDbEntity
  8
Defpoints
 62
     0
100
AcDbPoint
 10
510.9815196251819
 20
197.1369976152284
 30
0.0
  0
POINT
  5
73B
330
678
100
AcDbEntity
  8
Defpoints
 62
     0
100
AcDbPoint
 10
524.9815196251819
 20
197.1369976152284
 30
0.0
  0
POINT
  5
73C
330
678
100
AcDbEntity
  8
Defpoints
 62
     0
100
AcDbPoint
 10
524.9815196251819
 20
180.2122597218906
 30
0.0
  0
ENDBLK
  5
684
330
678
100
AcDbEntity
  8
0
100
AcDbBlockEnd
  0
BLOCK
  5
690
330
685
100
AcDbEntity
  8
0
100
AcDbBlockBegin
  2
*D37
 70
     1
 10
0.0
 20
0.0
 30
0.0
  3
*D37
  1

  0
LINE
  5
73D
330
685
100
AcDbEntity
  8
1
 62
     0
370
    -2
100
AcDbLine
 10
425.9815196279649
 20
192.1369976142025
 30
0.0
 11
425.9815196279649
 21
179.2122597218915
 31
0.0
  0
LINE
  5
73E
330
685
100
AcDbEntity
  8
1
 62
     0
370
    -2
100
AcDbLine
 10
423.4815196274629
 20
192.1369976142025
 30
0.0
 11
423.4815196274629
 21
179.2122597218915
 31
0.0
  0
LINE
  5
73F
330
685
100
AcDbEntity
  8
1
 62
     0
370
    -2
100
AcDbLine
 10
433.981519627965
 20
180.2122597218915
 30
0.0
 11
441.981519627965
 21
180.2122597218915
 31
0.0
  0
LINE
  5
740
330
685
100
AcDbEntity
  8
1
 62
     0
370
    -2
100
AcDbLine
 10
415.4815196274629
 20
180.2122597218915
 30
0.0
 11
407.4815196274629
 21
180.2122597218915
 31
0.0
  0
INSERT
  5
741
330
685
100
AcDbEntity
  8
1
 62
     0
370
    -2
100
AcDbBlockReference
  2
_Open30
 10
425.9815196279649
 20
180.2122597218915
 30
0.0
 41
8.0
 42
8.0
 43
8.0
 50
180.0
  0
INSERT
  5
742
330
685
100
AcDbEntity
  8
1
 62
     0
370
    -2
100
AcDbBlockReference
  2
_Open30
 10
423.4815196274629
 20
180.2122597218915
 30
0.0
 41
8.0
 42
8.0
 43
8.0
  0
MTEXT
  5
743
330
685
100
AcDbEntity
  8
1
 62
     0
370
     9
100
AcDbMText
 10
424.7315196277139
 20
172.2122597218915
 30
0.0
 40
8.0
 41
0.0
 71
     5
 72
     1
  1
\A1;2.5
 73
     1
 44
1.0
1001
ACAD
1000
MTEXTBEGIN
1070
    73
1070
     1
1070
    44
1040
1.0
1070
    74
1070
     0
1000
MTEXTEND
  0
POINT
  5
744
330
685
100
AcDbEntity
  8
Defpoints
 62
     0
100
AcDbPoint
 10
425.9815196279649
 20
197.1369976142025
 30
0.0
  0
POINT
  5
745
330
685
100
AcDbEntity
  8
Defpoints
 62
     0
100
AcDbPoint
 10
423.4815196274629
 20
197.1369976142025
 30
0.0
  0
POINT
  5
746
330
685
100
AcDbEntity
  8
Defpoints
 62
     0
100
AcDbPoint
 10
423.4815196274629
 20
180.2122597218915
 30
0.0
  0
ENDBLK
  5
691
330
685
100
AcDbEntity
  8
0
100
AcDbBlockEnd
  0
BLOCK
  5
69C
330
692
100
AcDbEntity
  8
0
100
AcDbBlockBegin
  2
*D38
 70
     1
 10
0.0
 20
0.0
 30
0.0
  3
*D38
  1

  0
LINE
  5
747
330
692
100
AcDbEntity
  8
1
 62
     0
370
    -2
100
AcDbLine
 10
423.4815196274629
 20
174.2122597218924
 30
0.0
 11
423.4815196274629
 21
152.7348744725543
 31
0.0
  0
LINE
  5
748
330
692
100
AcDbEntity
  8
1
 62
     0
370
    -2
100
AcDbLine
 10
524.9815196251819
 20
174.2122597218906
 30
0.0
 11
524.9815196251819
 21
152.7348744725543
 31
0.0
  0
LINE
  5
749
330
692
100
AcDbEntity
  8
1
 62
     0
370
    -2
100
AcDbLine
 10
431.4815196274629
 20
153.7348744725543
 30
0.0
 11
516.9815196251819
 21
153.7348744725543
 31
0.0
  0
INSERT
  5
74A
330
692
100
AcDbEntity
  8
1
 62
     0
370
    -2
100
AcDbBlockReference
  2
_Open30
 10
423.4815196274629
 20
153.7348744725543
 30
0.0
 41
8.0
 42
8.0
 43
8.0
 50
180.0
  0
INSERT
  5
74B
330
692
100
AcDbEntity
  8
1
 62
     0
370
    -2
100
AcDbBlockReference
  2
_Open30
 10
524.9815196251819
 20
153.7348744725543
 30
0.0
 41
8.0
 42
8.0
 43
8.0
  0
MTEXT
  5
74C
330
692
100
AcDbEntity
  8
1
 62
     0
370
     9
100
AcDbMText
 10
474.2315196263224
 20
145.7348744725543
 30
0.0
 40
8.0
 41
0.0
 71
     5
 72
     1
  1
\A1;101.5
 73
     1
 44
1.0
1001
ACAD
1000
MTEXTBEGIN
1070
    73
1070
     1
1070
    44
1040
1.0
1070
    74
1070
     0
1000
MTEXTEND
  0
POINT
  5
74D
330
692
100
AcDbEntity
  8
Defpoints
 62
     0
100
AcDbPoint
 10
423.4815196274629
 20
179.2122597218924
 30
0.0
  0
POINT
  5
74E
330
692
100
AcDbEntity
  8
Defpoints
 62
     0
100
AcDbPoint
 10
524.9815196251819
 20
179.2122597218906
 30
0.0
  0
POINT
  5
74F
330
692
100
AcDbEntity
  8
Defpoints
 62
     0
100
AcDbPoint
 10
524.9815196251819
 20
153.7348744725543
 30
0.0
  0
ENDBLK
  5
69D
330
692
100
AcDbEntity
  8
0
100
AcDbBlockEnd
  0
BLOCK
  5
6A8
330
69E
100
AcDbEntity
  8
0
100
AcDbBlockBegin
  2
*D39
 70
     1
 10
0.0
 20
0.0
 30
0.0
  3
*D39
  1

  0
LINE
  5
750
330
69E
100
AcDbEntity
  8
1
 62
     0
370
    -2
100
AcDbLine
 10
552.7071690953579
 20
397.1369976152321
 30
0.0
 11
606.2733775921242
 21
397.1369976152321
 31
0.0
  0
LINE
  5
751
330
69E
100
AcDbEntity
  8
1
 62
     0
370
    -2
100
AcDbLine
 10
552.7071690953579
 20
197.1369976152284
 30
0.0
 11
606.2733775921241
 21
197.1369976152284
 31
0.0
  0
LINE
  5
752
330
69E
100
AcDbEntity
  8
1
 62
     0
370
    -2
100
AcDbLine
 10
605.2733775921242
 20
389.1369976152321
 30
0.0
 11
605.273377592124
 21
205.1369976152284
 31
0.0
  0
INSERT
  5
753
330
69E
100
AcDbEntity
  8
1
 62
     0
370
    -2
100
AcDbBlockReference
  2
_Open30
 10
605.2733775921242
 20
397.1369976152321
 30
0.0
 41
8.0
 42
8.0
 43
8.0
 50
90.0
  0
INSERT
  5
754
330
69E
100
AcDbEntity
  8
1
 62
     0
370
    -2
100
AcDbBlockReference
  2
_Open30
 10
605.273377592124
 20
197.1369976152284
 30
0.0
 41
8.0
 42
8.0
 43
8.0
 50
270.0
  0
MTEXT
  5
755
330
69E
100
AcDbEntity
  8
1
 62
     0
370
     9
100
AcDbMText
 10
613.2733775921241
 20
297.1369976152303
 30
0.0
 40
8.0
 41
0.0
 71
     5
 72
     1
  1
\A1;200
 11
0.0000000000000001
 21
1.0
 31
0.0
 73
     1
 44
1.0
1001
ACAD
1000
MTEXTBEGIN
1070
    73
1070
     1
1070
    44
1040
1.0
1070
    74
1070
     0
1000
MTEXTEND
  0
POINT
  5
756
330
69E
100
AcDbEntity
  8
Defpoints
 62
     0
100
AcDbPoint
 10
547.7071690953579
 20
397.1369976152321
 30
0.0
  0
POINT
  5
757
330
69E
100
AcDbEntity
  8
Defpoints
 62
     0
100
AcDbPoint
 10
547.7071690953579
 20
197.1369976152284
 30
0.0
  0
POINT
  5
758
330
69E
100
AcDbEntity
  8
Defpoints
 62
     0
100
AcDbPoint
 10
605.273377592124
 20
197.1369976152284
 30
0.0
  0
ENDBLK
  5
6A9
330
69E
100
AcDbEntity
  8
0
100
AcDbBlockEnd
  0
BLOCK
  5
6B4
330
6AA
100
AcDbEntity
  8
0
100
AcDbBlockBegin
  2
*D40
 70
     1
 10
0.0
 20
0.0
 30
0.0
  3
*D40
  1

  0
LINE
  5
759
330
6AA
100
AcDbEntity
  8
1
 62
     0
370
    -2
100
AcDbLine
 10
516.6621285729759
 20
347.136997615032
 30
0.0
 11
552.2886159833596
 21
347.136997615032
 31
0.0
  0
LINE
  5
75A
330
6AA
100
AcDbEntity
  8
1
 62
     0
370
    -2
100
AcDbLine
 10
515.9815196251818
 20
247.1369976154321
 30
0.0
 11
552.2886159833595
 21
247.1369976154321
 31
0.0
  0
LINE
  5
75B
330
6AA
100
AcDbEntity
  8
1
 62
     0
370
    -2
100
AcDbLine
 10
551.2886159833596
 20
339.136997615032
 30
0.0
 11
551.2886159833596
 21
255.1369976154322
 31
0.0
  0
INSERT
  5
75C
330
6AA
100
AcDbEntity
  8
1
 62
     0
370
    -2
100
AcDbBlockReference
  2
_Open30
 10
551.2886159833596
 20
347.136997615032
 30
0.0
 41
8.0
 42
8.0
 43
8.0
 50
90.0
  0
INSERT
  5
75D
330
6AA
100
AcDbEntity
  8
1
 62
     0
370
    -2
100
AcDbBlockReference
  2
_Open30
 10
551.2886159833596
 20
247.1369976154321
 30
0.0
 41
8.0
 42
8.0
 43
8.0
 50
270.0
  0
MTEXT
  5
75E
330
6AA
100
AcDbEntity
  8
1
 62
     0
370
     9
100
AcDbMText
 10
559.2886159833596
 20
297.1369976152321
 30
0.0
 40
8.0
 41
0.0
 71
     5
 72
     1
  1
\A1;100
 11
0.0000000000000001
 21
1.0
 31
0.0
 73
     1
 44
1.0
1001
ACAD
1000
MTEXTBEGIN
1070
    73
1070
     1
1070
    44
1040
1.0
1070
    74
1070
     0
1000
MTEXTEND
  0
POINT
  5
75F
330
6AA
100
AcDbEntity
  8
Defpoints
 62
     0
100
AcDbPoint
 10
511.662128572976
 20
347.136997615032
 30
0.0
  0
POINT
  5
760
330
6AA
100
AcDbEntity
  8
Defpoints
 62
     0
100
AcDbPoint
 10
510.9815196251819
 20
247.1369976154321
 30
0.0
  0
POINT
  5
761
330
6AA
100
AcDbEntity
  8
Defpoints
 62
     0
100
AcDbPoint
 10
551.2886159833596
 20
247.1369976154321
 30
0.0
  0
ENDBLK
  5
6B5
330
6AA
100
AcDbEntity
  8
0
100
AcDbBlockEnd
  0
BLOCK
  5
6C0
330
6B6
100
AcDbEntity
  8
0
100
AcDbBlockBegin
  2
*D41
 70
     1
 10
0.0
 20
0.0
 30
0.0
  3
*D41
  1

  0
LINE
  5
7AD
330
6B6
100
AcDbEntity
  8
1
 62
     0
370
    -2
100
AcDbLine
 10
166.9678751107948
 20
387.1369976162616
 30
0.0
 11
181.698346889685
 21
387.1369976162616
 31
0.0
  0
LINE
  5
7AE
330
6B6
100
AcDbEntity
  8
1
 62
     0
370
    -2
100
AcDbLine
 10
166.9678751107948
 20
320.1398125971657
 30
0.0
 11
181.698346889685
 21
320.1398125971657
 31
0.0
  0
LINE
  5
7AF
330
6B6
100
AcDbEntity
  8
1
 62
     0
370
    -2
100
AcDbLine
 10
180.698346889685
 20
379.1369976162616
 30
0.0
 11
180.698346889685
 21
328.1398125971657
 31
0.0
  0
INSERT
  5
7B0
330
6B6
100
AcDbEntity
  8
1
 62
     0
370
    -2
100
AcDbBlockReference
  2
_Open30
 10
180.698346889685
 20
387.1369976162616
 30
0.0
 41
8.0
 42
8.0
 43
8.0
 50
90.0
  0
INSERT
  5
7B1
330
6B6
100
AcDbEntity
  8
1
 62
     0
370
    -2
100
AcDbBlockReference
  2
_Open30
 10
180.698346889685
 20
320.1398125971657
 30
0.0
 41
8.0
 42
8.0
 43
8.0
 50
270.0
  0
MTEXT
  5
7B2
330
6B6
100
AcDbEntity
  8
1
 62
     0
370
     9
100
AcDbMText
 10
188.6983468896849
 20
353.6384051067137
 30
0.0
 40
8.0
 41
0.0
 71
     5
 72
     1
  1
\A1;67
 11
0.0000000000000001
 21
1.0
 31
0.0
 73
     1
 44
1.0
1001
ACAD
1000
MTEXTBEGIN
1070
    73
1070
     1
1070
    44
1040
1.0
1070
    74
1070
     0
1000
MTEXTEND
  0
POINT
  5
7B3
330
6B6
100
AcDbEntity
  8
Defpoints
 62
     0
100
AcDbPoint
 10
161.9678751107948
 20
387.1369976162616
 30
0.0
  0
POINT
  5
7B4
330
6B6
100
AcDbEntity
  8
Defpoints
 62
     0
100
AcDbPoint
 10
161.9678751107948
 20
320.1398125971657
 30
0.0
  0
POINT
  5
7B5
330
6B6
100
AcDbEntity
  8
Defpoints
 62
     0
100
AcDbPoint
 10
180.698346889685
 20
320.1398125971657
 30
0.0
  0
ENDBLK
  5
6C1
330
6B6
100
AcDbEntity
  8
0
100
AcDbBlockEnd
  0
BLOCK
  5
6CC
330
6C2
100
AcDbEntity
  8
0
100
AcDbBlockBegin
  2
*D42
 70
     1
 10
0.0
 20
0.0
 30
0.0
  3
*D42
  1

  0
LINE
  5
7B6
330
6C2
100
AcDbEntity
  8
1
 62
     0
370
    -2
100
AcDbLine
 10
166.9678751107948
 20
320.1398125971657
 30
0.0
 11
181.698346889685
 21
320.1398125971657
 31
0.0
  0
LINE
  5
7B7
330
6C2
100
AcDbEntity
  8
1
 62
     0
370
    -2
100
AcDbLine
 10
166.9678751107948
 20
236.1446140256551
 30
0.0
 11
181.698346889685
 21
236.1446140256551
 31
0.0
  0
LINE
  5
7B8
330
6C2
100
AcDbEntity
  8
1
 62
     0
370
    -2
100
AcDbLine
 10
180.698346889685
 20
312.1398125971657
 30
0.0
 11
180.698346889685
 21
244.1446140256551
 31
0.0
  0
INSERT
  5
7B9
330
6C2
100
AcDbEntity
  8
1
 62
     0
370
    -2
100
AcDbBlockReference
  2
_Open30
 10
180.698346889685
 20
320.1398125971657
 30
0.0
 41
8.0
 42
8.0
 43
8.0
 50
90.0
  0
INSERT
  5
7BA
330
6C2
100
AcDbEntity
  8
1
 62
     0
370
    -2
100
AcDbBlockReference
  2
_Open30
 10
180.698346889685
 20
236.1446140256551
 30
0.0
 41
8.0
 42
8.0
 43
8.0
 50
270.0
  0
MTEXT
  5
7BB
330
6C2
100
AcDbEntity
  8
1
 62
     0
370
     9
100
AcDbMText
 10
188.698346889685
 20
278.1422133114105
 30
0.0
 40
8.0
 41
0.0
 71
     5
 72
     1
  1
\A1;84
 11
0.0000000000000001
 21
1.0
 31
0.0
 73
     1
 44
1.0
1001
ACAD
1000
MTEXTBEGIN
1070
    73
1070
     1
1070
    44
1040
1.0
1070
    74
1070
     0
1000
MTEXTEND
  0
POINT
  5
7BC
330
6C2
100
AcDbEntity
  8
Defpoints
 62
     0
100
AcDbPoint
 10
161.9678751107948
 20
320.1398125971657
 30
0.0
  0
POINT
  5
7BD
330
6C2
100
AcDbEntity
  8
Defpoints
 62
     0
100
AcDbPoint
 10
161.9678751107948
 20
236.1446140256551
 30
0.0
  0
POINT
  5
7BE
330
6C2
100
AcDbEntity
  8
Defpoints
 62
     0
100
AcDbPoint
 10
180.698346889685
 20
236.1446140256551
 30
0.0
  0
ENDBLK
  5
6CD
330
6C2
100
AcDbEntity
  8
0
100
AcDbBlockEnd
  0
BLOCK
  5
6D8
330
6CE
100
AcDbEntity
  8
0
100
AcDbBlockBegin
  2
*D43
 70
     1
 10
0.0
 20
0.0
 30
0.0
  3
*D43
  1

  0
LINE
  5
7FE
330
6CE
100
AcDbEntity
  8
1
 62
     0
370
    -2
100
AcDbLine
 10
127.9678751118934
 20
382.1369976162617
 30
0.0
 11
72.43323005724407
 21
382.1369976162617
 31
0.0
  0
LINE
  5
7FF
330
6CE
100
AcDbEntity
  8
1
 62
     0
370
    -2
100
AcDbLine
 10
134.4678751118935
 20
212.1369976142025
 30
0.0
 11
72.43323005724403
 21
212.1369976142025
 31
0.0
  0
LINE
  5
800
330
6CE
100
AcDbEntity
  8
1
 62
     0
370
    -2
100
AcDbLine
 10
73.43323005724407
 20
374.1369976162617
 30
0.0
 11
73.43323005724403
 21
220.1369976142025
 31
0.0
  0
INSERT
  5
801
330
6CE
100
AcDbEntity
  8
1
 62
     0
370
    -2
100
AcDbBlockReference
  2
_Open30
 10
73.43323005724407
 20
382.1369976162617
 30
0.0
 41
8.0
 42
8.0
 43
8.0
 50
90.0
  0
INSERT
  5
802
330
6CE
100
AcDbEntity
  8
1
 62
     0
370
    -2
100
AcDbBlockReference
  2
_Open30
 10
73.43323005724403
 20
212.1369976142025
 30
0.0
 41
8.0
 42
8.0
 43
8.0
 50
270.0
  0
MTEXT
  5
803
330
6CE
100
AcDbEntity
  8
1
 62
     0
370
     9
100
AcDbMText
 10
65.433230057244
 20
297.1369976152321
 30
0.0
 40
8.0
 41
0.0
 71
     5
 72
     1
  1
\A1;170
 11
0.0000000000000001
 21
1.0
 31
0.0
 73
     1
 44
1.0
1001
ACAD
1000
MTEXTBEGIN
1070
    73
1070
     1
1070
    44
1040
1.0
1070
    74
1070
     0
1000
MTEXTEND
  0
POINT
  5
804
330
6CE
100
AcDbEntity
  8
Defpoints
 62
     0
100
AcDbPoint
 10
132.9678751118934
 20
382.1369976162616
 30
0.0
  0
POINT
  5
805
330
6CE
100
AcDbEntity
  8
Defpoints
 62
     0
100
AcDbPoint
 10
139.4678751118934
 20
212.1369976142025
 30
0.0
  0
POINT
  5
806
330
6CE
100
AcDbEntity
  8
Defpoints
 62
     0
100
AcDbPoint
 10
73.43323005724403
 20
212.1369976142025
 30
0.0
  0
ENDBLK
  5
6D9
330
6CE
100
AcDbEntity
  8
0
100
AcDbBlockEnd
  0
BLOCK
  5
6E5
330
6DA
100
AcDbEntity
  8
0
100
AcDbBlockBegin
  2
*D44
 70
     1
 10
0.0
 20
0.0
 30
0.0
  3
*D44
  1

  0
LINE
  5
807
330
6DA
100
AcDbEntity
  8
1
 62
     0
370
    -2
100
AcDbLine
 10
134.4678751118935
 20
382.1369976162616
 30
0.0
 11
72.43323005724403
 21
382.1369976162617
 31
0.0
  0
LINE
  5
808
330
6DA
100
AcDbEntity
  8
1
 62
     0
370
    -2
100
AcDbLine
 10
127.9678751118934
 20
397.1369976162617
 30
0.0
 11
72.43323005724403
 21
397.1369976162617
 31
0.0
  0
LINE
  5
809
330
6DA
100
AcDbEntity
  8
1
 62
     0
370
    -2
100
AcDbLine
 10
73.43323005724403
 20
374.1369976162617
 30
0.0
 11
73.43323005724403
 21
366.1369976162617
 31
0.0
  0
LINE
  5
80A
330
6DA
100
AcDbEntity
  8
1
 62
     0
370
    -2
100
AcDbLine
 10
73.43323005724403
 20
405.1369976162616
 30
0.0
 11
73.43323005724404
 21
431.8036642829283
 31
0.0
  0
INSERT
  5
80B
330
6DA
100
AcDbEntity
  8
1
 62
     0
370
    -2
100
AcDbBlockReference
  2
_Open30
 10
73.43323005724403
 20
382.1369976162617
 30
0.0
 41
8.0
 42
8.0
 43
8.0
 50
90.0
  0
INSERT
  5
80C
330
6DA
100
AcDbEntity
  8
1
 62
     0
370
    -2
100
AcDbBlockReference
  2
_Open30
 10
73.43323005724403
 20
397.1369976162617
 30
0.0
 41
8.0
 42
8.0
 43
8.0
 50
270.0
  0
MTEXT
  5
80D
330
6DA
100
AcDbEntity
  8
1
 62
     0
370
     9
100
AcDbMText
 10
65.43323005724397
 20
422.4703309495949
 30
0.0
 40
8.0
 41
0.0
 71
     5
 72
     1
  1
\A1;15
 11
0.0000000000000001
 21
1.0
 31
0.0
 73
     1
 44
1.0
1001
ACAD
1000
MTEXTBEGIN
1070
    73
1070
     1
1070
    44
1040
1.0
1070
    74
1070
     0
1000
MTEXTEND
  0
POINT
  5
80E
330
6DA
100
AcDbEntity
  8
Defpoints
 62
     0
100
AcDbPoint
 10
139.4678751118934
 20
382.1369976162616
 30
0.0
  0
POINT
  5
80F
330
6DA
100
AcDbEntity
  8
Defpoints
 62
     0
100
AcDbPoint
 10
132.9678751118934
 20
397.1369976162616
 30
0.0
  0
POINT
  5
810
330
6DA
100
AcDbEntity
  8
Defpoints
 62
     0
100
AcDbPoint
 10
73.43323005724403
 20
397.1369976162617
 30
0.0
  0
ENDBLK
  5
6E6
330
6DA
100
AcDbEntity
  8
0
100
AcDbBlockEnd
  0
BLOCK
  5
6F1
330
6E7
100
AcDbEntity
  8
0
100
AcDbBlockBegin
  2
*D45
 70
     1
 10
0.0
 20
0.0
 30
0.0
  3
*D45
  1

  0
LINE
  5
811
330
6E7
100
AcDbEntity
  8
1
 62
     0
370
    -2
100
AcDbLine
 10
166.9678751107948
 20
397.1369976162616
 30
0.0
 11
205.1790446302493
 21
397.1369976162616
 31
0.0
  0
LINE
  5
812
330
6E7
100
AcDbEntity
  8
1
 62
     0
370
    -2
100
AcDbLine
 10
166.0155101507279
 20
197.1369976142025
 30
0.0
 11
205.1790446302492
 21
197.1369976142025
 31
0.0
  0
LINE
  5
813
330
6E7
100
AcDbEntity
  8
1
 62
     0
370
    -2
100
AcDbLine
 10
204.1790446302492
 20
389.1369976162616
 30
0.0
 11
204.1790446302492
 21
205.1369976142025
 31
0.0
  0
INSERT
  5
814
330
6E7
100
AcDbEntity
  8
1
 62
     0
370
    -2
100
AcDbBlockReference
  2
_Open30
 10
204.1790446302492
 20
397.1369976162616
 30
0.0
 41
8.0
 42
8.0
 43
8.0
 50
90.0
  0
INSERT
  5
815
330
6E7
100
AcDbEntity
  8
1
 62
     0
370
    -2
100
AcDbBlockReference
  2
_Open30
 10
204.1790446302492
 20
197.1369976142025
 30
0.0
 41
8.0
 42
8.0
 43
8.0
 50
270.0
  0
MTEXT
  5
816
330
6E7
100
AcDbEntity
  8
1
 62
     0
370
     9
100
AcDbMText
 10
212.1790446302492
 20
297.1369976152321
 30
0.0
 40
8.0
 41
0.0
 71
     5
 72
     1
  1
\A1;200
 11
0.0000000000000001
 21
1.0
 31
0.0
 73
     1
 44
1.0
1001
ACAD
1000
MTEXTBEGIN
1070
    73
1070
     1
1070
    44
1040
1.0
1070
    74
1070
     0
1000
MTEXTEND
  0
POINT
  5
817
330
6E7
100
AcDbEntity
  8
Defpoints
 62
     0
100
AcDbPoint
 10
161.9678751107948
 20
397.1369976162616
 30
0.0
  0
POINT
  5
818
330
6E7
100
AcDbEntity
  8
Defpoints
 62
     0
100
AcDbPoint
 10
161.0155101507279
 20
197.1369976142025
 30
0.0
  0
POINT
  5
819
330
6E7
100
AcDbEntity
  8
Defpoints
 62
     0
100
AcDbPoint
 10
204.1790446302492
 20
197.1369976142025
 30
0.0
  0
ENDBLK
  5
6F2
330
6E7
100
AcDbEntity
  8
0
100
AcDbBlockEnd
  0
BLOCK
  5
6FD
330
6F3
100
AcDbEntity
  8
0
100
AcDbBlockBegin
  2
*D46
 70
     1
 10
0.0
 20
0.0
 30
0.0
  3
*D46
  1

  0
LINE
  5
826
330
6F3
100
AcDbEntity
  8
1
 62
     0
370
    -2
100
AcDbLine
 10
326.2705727968622
 20
172.4286395574538
 30
0.0
 11
326.2705727968622
 21
150.9508234522447
 31
0.0
  0
LINE
  5
827
330
6F3
100
AcDbEntity
  8
1
 62
     0
370
    -2
100
AcDbLine
 10
271.2705727968622
 20
192.1369976152284
 30
0.0
 11
271.2705727968622
 21
150.9508234522447
 31
0.0
  0
LINE
  5
828
330
6F3
100
AcDbEntity
  8
1
 62
     0
370
    -2
100
AcDbLine
 10
318.2705727968622
 20
151.9508234522447
 30
0.0
 11
279.2705727968622
 21
151.9508234522447
 31
0.0
  0
INSERT
  5
829
330
6F3
100
AcDbEntity
  8
1
 62
     0
370
    -2
100
AcDbBlockReference
  2
_Open30
 10
326.2705727968622
 20
151.9508234522447
 30
0.0
 41
8.0
 42
8.0
 43
8.0
  0
INSERT
  5
82A
330
6F3
100
AcDbEntity
  8
1
 62
     0
370
    -2
100
AcDbBlockReference
  2
_Open30
 10
271.2705727968622
 20
151.9508234522447
 30
0.0
 41
8.0
 42
8.0
 43
8.0
 50
180.0
  0
MTEXT
  5
82B
330
6F3
100
AcDbEntity
  8
1
 62
     0
370
     9
100
AcDbMText
 10
298.7705727968622
 20
143.9508234522447
 30
0.0
 40
8.0
 41
0.0
 71
     5
 72
     1
  1
\A1;55
 73
     1
 44
1.0
1001
ACAD
1000
MTEXTBEGIN
1070
    73
1070
     1
1070
    44
1040
1.0
1070
    74
1070
     0
1000
MTEXTEND
  0
POINT
  5
82C
330
6F3
100
AcDbEntity
  8
Defpoints
 62
     0
100
AcDbPoint
 10
326.2705727968622
 20
177.4286395574538
 30
0.0
  0
POINT
  5
82D
330
6F3
100
AcDbEntity
  8
Defpoints
 62
     0
100
AcDbPoint
 10
271.2705727968622
 20
197.1369976152284
 30
0.0
  0
POINT
  5
82E
330
6F3
100
AcDbEntity
  8
Defpoints
 62
     0
100
AcDbPoint
 10
271.2705727968622
 20
151.9508234522447
 30
0.0
  0
ENDBLK
  5
6FE
330
6F3
100
AcDbEntity
  8
0
100
AcDbBlockEnd
  0
BLOCK
  5
709
330
6FF
100
AcDbEntity
  8
0
100
AcDbBlockBegin
  2
*D47
 70
     1
 10
0.0
 20
0.0
 30
0.0
  3
*D47
  1

  0
LINE
  5
82F
330
6FF
100
AcDbEntity
  8
1
 62
     0
370
    -2
100
AcDbLine
 10
161.9678751107948
 20
231.1446140256551
 30
0.0
 11
161.9678751107948
 21
176.609582564962
 31
0.0
  0
LINE
  5
830
330
6FF
100
AcDbEntity
  8
1
 62
     0
370
    -2
100
AcDbLine
 10
116.9678751129921
 20
202.1369976142025
 30
0.0
 11
116.9678751129921
 21
176.609582564962
 31
0.0
  0
LINE
  5
831
330
6FF
100
AcDbEntity
  8
1
 62
     0
370
    -2
100
AcDbLine
 10
153.9678751107948
 20
177.609582564962
 30
0.0
 11
124.9678751129921
 21
177.609582564962
 31
0.0
  0
INSERT
  5
832
330
6FF
100
AcDbEntity
  8
1
 62
     0
370
    -2
100
AcDbBlockReference
  2
_Open30
 10
161.9678751107948
 20
177.609582564962
 30
0.0
 41
8.0
 42
8.0
 43
8.0
  0
INSERT
  5
833
330
6FF
100
AcDbEntity
  8
1
 62
     0
370
    -2
100
AcDbBlockReference
  2
_Open30
 10
116.9678751129921
 20
177.609582564962
 30
0.0
 41
8.0
 42
8.0
 43
8.0
 50
180.0
  0
MTEXT
  5
834
330
6FF
100
AcDbEntity
  8
1
 62
     0
370
     9
100
AcDbMText
 10
139.4678751118934
 20
169.609582564962
 30
0.0
 40
8.0
 41
0.0
 71
     5
 72
     1
  1
\A1;45
 73
     1
 44
1.0
1001
ACAD
1000
MTEXTBEGIN
1070
    73
1070
     1
1070
    44
1040
1.0
1070
    74
1070
     0
1000
MTEXTEND
  0
POINT
  5
835
330
6FF
100
AcDbEntity
  8
Defpoints
 62
     0
100
AcDbPoint
 10
161.9678751107948
 20
236.1446140256551
 30
0.0
  0
POINT
  5
836
330
6FF
100
AcDbEntity
  8
Defpoints
 62
     0
100
AcDbPoint
 10
116.9678751129921
 20
207.1369976142025
 30
0.0
  0
POINT
  5
837
330
6FF
100
AcDbEntity
  8
Defpoints
 62
     0
100
AcDbPoint
 10
116.9678751129921
 20
177.609582564962
 30
0.0
  0
ENDBLK
  5
70A
330
6FF
100
AcDbEntity
  8
0
100
AcDbBlockEnd
  0
BLOCK
  5
715
330
70B
100
AcDbEntity
  8
0
100
AcDbBlockBegin
  2
*D48
 70
     1
 10
0.0
 20
0.0
 30
0.0
  3
*D48
  1

  0
LINE
  5
70C
330
70B
100
AcDbEntity
  8
1
 62
     0
370
    -2
100
AcDbLine
 10
529.9815196251819
 20
397.1369976152321
 30
0.0
 11
580.4902733437428
 21
397.1369976152321
 31
0.0
  0
LINE
  5
70D
330
70B
100
AcDbEntity
  8
1
 62
     0
370
    -2
100
AcDbLine
 10
523.4815196251819
 20
367.1351968946649
 30
0.0
 11
580.4902733437428
 21
367.1351968946649
 31
0.0
  0
LINE
  5
70E
330
70B
100
AcDbEntity
  8
1
 62
     0
370
    -2
100
AcDbLine
 10
579.4902733437428
 20
389.1369976152321
 30
0.0
 11
579.4902733437428
 21
375.1351968946649
 31
0.0
  0
INSERT
  5
70F
330
70B
100
AcDbEntity
  8
1
 62
     0
370
    -2
100
AcDbBlockReference
  2
_Open30
 10
579.4902733437428
 20
397.1369976152321
 30
0.0
 41
8.0
 42
8.0
 43
8.0
 50
90.0
  0
INSERT
  5
710
330
70B
100
AcDbEntity
  8
1
 62
     0
370
    -2
100
AcDbBlockReference
  2
_Open30
 10
579.4902733437428
 20
367.1351968946649
 30
0.0
 41
8.0
 42
8.0
 43
8.0
 50
270.0
  0
MTEXT
  5
711
330
70B
100
AcDbEntity
  8
1
 62
     0
370
     9
100
AcDbMText
 10
587.4902733437427
 20
382.1360972549485
 30
0.0
 40
8.0
 41
0.0
 71
     5
 72
     1
  1
\A1;30
 11
0.0000000000000001
 21
1.0
 31
0.0
 73
     1
 44
1.0
1001
ACAD
1000
MTEXTBEGIN
1070
    73
1070
     1
1070
    44
1040
1.0
1070
    74
1070
     0
1000
MTEXTEND
  0
POINT
  5
712
330
70B
100
AcDbEntity
  8
Defpoints
 62
     0
100
AcDbPoint
 10
524.9815196251819
 20
397.1369976152321
 30
0.0
  0
POINT
  5
713
330
70B
100
AcDbEntity
  8
Defpoints
 62
     0
100
AcDbPoint
 10
518.4815196251819
 20
367.1351968946649
 30
0.0
  0
POINT
  5
714
330
70B
100
AcDbEntity
  8
Defpoints
 62
     0
100
AcDbPoint
 10
579.4902733437428
 20
367.1351968946649
 30
0.0
  0
ENDBLK
  5
716
330
70B
100
AcDbEntity
  8
0
100
AcDbBlockEnd
  0
BLOCK
  5
76C
330
762
100
AcDbEntity
  8
0
100
AcDbBlockBegin
  2
*D49
 70
     1
 10
0.0
 20
0.0
 30
0.0
  3
*D49
  1

  0
LINE
  5
763
330
762
100
AcDbEntity
  8
1
 62
     0
370
    -2
100
AcDbLine
 10
529.9815196251819
 20
397.1369976152321
 30
0.0
 11
552.2886159833595
 21
397.1369976152321
 31
0.0
  0
LINE
  5
764
330
762
100
AcDbEntity
  8
1
 62
     0
370
    -2
100
AcDbLine
 10
515.9815196251819
 20
347.136997615032
 30
0.0
 11
552.2886159833595
 21
347.136997615032
 31
0.0
  0
LINE
  5
765
330
762
100
AcDbEntity
  8
1
 62
     0
370
    -2
100
AcDbLine
 10
551.2886159833596
 20
389.1369976152321
 30
0.0
 11
551.2886159833596
 21
355.136997615032
 31
0.0
  0
INSERT
  5
766
330
762
100
AcDbEntity
  8
1
 62
     0
370
    -2
100
AcDbBlockReference
  2
_Open30
 10
551.2886159833596
 20
397.1369976152321
 30
0.0
 41
8.0
 42
8.0
 43
8.0
 50
90.0
  0
INSERT
  5
767
330
762
100
AcDbEntity
  8
1
 62
     0
370
    -2
100
AcDbBlockReference
  2
_Open30
 10
551.2886159833596
 20
347.136997615032
 30
0.0
 41
8.0
 42
8.0
 43
8.0
 50
270.0
  0
MTEXT
  5
768
330
762
100
AcDbEntity
  8
1
 62
     0
370
     9
100
AcDbMText
 10
559.2886159833595
 20
372.1369976151321
 30
0.0
 40
8.0
 41
0.0
 71
     5
 72
     1
  1
\A1;50
 11
0.0000000000000001
 21
1.0
 31
0.0
 73
     1
 44
1.0
1001
ACAD
1000
MTEXTBEGIN
1070
    73
1070
     1
1070
    44
1040
1.0
1070
    74
1070
     0
1000
MTEXTEND
  0
POINT
  5
769
330
762
100
AcDbEntity
  8
Defpoints
 62
     0
100
AcDbPoint
 10
524.9815196251819
 20
397.1369976152321
 30
0.0
  0
POINT
  5
76A
330
762
100
AcDbEntity
  8
Defpoints
 62
     0
100
AcDbPoint
 10
510.9815196251819
 20
347.136997615032
 30
0.0
  0
POINT
  5
76B
330
762
100
AcDbEntity
  8
Defpoints
 62
     0
100
AcDbPoint
 10
551.2886159833596
 20
347.136997615032
 30
0.0
  0
ENDBLK
  5
76D
330
762
100
AcDbEntity
  8
0
100
AcDbBlockEnd
  0
BLOCK
  5
779
330
76E
100
AcDbEntity
  8
0
100
AcDbBlockBegin
  2
*D50
 70
     1
 10
0.0
 20
0.0
 30
0.0
  3
*D50
  1

  0
LINE
  5
76F
330
76E
100
AcDbEntity
  8
1
 62
     0
370
    -2
100
AcDbLine
 10
331.2705727968586
 20
397.1369976152321
 30
0.0
 11
349.0736567405711
 21
397.1369976152321
 31
0.0
  0
LINE
  5
770
330
76E
100
AcDbEntity
  8
1
 62
     0
370
    -2
100
AcDbLine
 10
319.5205727968586
 20
377.1369976152248
 30
0.0
 11
349.073656740571
 21
377.1369976152248
 31
0.0
  0
LINE
  5
771
330
76E
100
AcDbEntity
  8
1
 62
     0
370
    -2
100
AcDbLine
 10
348.0736567405711
 20
405.136997615232
 30
0.0
 11
348.0736567405711
 21
413.1369976152321
 31
0.0
  0
LINE
  5
772
330
76E
100
AcDbEntity
  8
1
 62
     0
370
    -2
100
AcDbLine
 10
348.073656740571
 20
369.1369976152248
 30
0.0
 11
348.073656740571
 21
361.1369976152248
 31
0.0
  0
INSERT
  5
773
330
76E
100
AcDbEntity
  8
1
 62
     0
370
    -2
100
AcDbBlockReference
  2
_Open30
 10
348.0736567405711
 20
397.1369976152321
 30
0.0
 41
8.0
 42
8.0
 43
8.0
 50
270.0
  0
INSERT
  5
774
330
76E
100
AcDbEntity
  8
1
 62
     0
370
    -2
100
AcDbBlockReference
  2
_Open30
 10
348.073656740571
 20
377.1369976152248
 30
0.0
 41
8.0
 42
8.0
 43
8.0
 50
90.0
  0
MTEXT
  5
775
330
76E
100
AcDbEntity
  8
1
 62
     0
370
     9
100
AcDbMText
 10
356.073656740571
 20
387.1369976152285
 30
0.0
 40
8.0
 41
0.0
 71
     5
 72
     1
  1
\A1;20
 11
0.0000000000000001
 21
1.0
 31
0.0
 73
     1
 44
1.0
1001
ACAD
1000
MTEXTBEGIN
1070
    73
1070
     1
1070
    44
1040
1.0
1070
    74
1070
     0
1000
MTEXTEND
  0
POINT
  5
776
330
76E
100
AcDbEntity
  8
Defpoints
 62
     0
100
AcDbPoint
 10
326.2705727968586
 20
397.1369976152321
 30
0.0
  0
POINT
  5
777
330
76E
100
AcDbEntity
  8
Defpoints
 62
     0
100
AcDbPoint
 10
314.5205727968586
 20
377.1369976152248
 30
0.0
  0
POINT
  5
778
330
76E
100
AcDbEntity
  8
Defpoints
 62
     0
100
AcDbPoint
 10
348.073656740571
 20
377.1369976152248
 30
0.0
  0
ENDBLK
  5
77A
330
76E
100
AcDbEntity
  8
0
100
AcDbBlockEnd
  0
BLOCK
  5
785
330
77B
100
AcDbEntity
  8
0
100
AcDbBlockBegin
  2
*D51
 70
     1
 10
0.0
 20
0.0
 30
0.0
  3
*D51
  1

  0
LINE
  5
77C
330
77B
100
AcDbEntity
  8
1
 62
     0
370
    -2
100
AcDbLine
 10
321.7705727968586
 20
377.1369976152248
 30
0.0
 11
348.573656740571
 21
377.1369976152248
 31
0.0
  0
LINE
  5
77D
330
77B
100
AcDbEntity
  8
1
 62
     0
370
    -2
100
AcDbLine
 10
323.7767267011057
 20
217.1369976152321
 30
0.0
 11
348.573656740571
 21
217.1369976152321
 31
0.0
  0
LINE
  5
77E
330
77B
100
AcDbEntity
  8
1
 62
     0
370
    -2
100
AcDbLine
 10
347.573656740571
 20
369.1369976152248
 30
0.0
 11
347.573656740571
 21
225.1369976152321
 31
0.0
  0
INSERT
  5
77F
330
77B
100
AcDbEntity
  8
1
 62
     0
370
    -2
100
AcDbBlockReference
  2
_Open30
 10
347.573656740571
 20
377.1369976152248
 30
0.0
 41
8.0
 42
8.0
 43
8.0
 50
90.0
  0
INSERT
  5
780
330
77B
100
AcDbEntity
  8
1
 62
     0
370
    -2
100
AcDbBlockReference
  2
_Open30
 10
347.573656740571
 20
217.1369976152321
 30
0.0
 41
8.0
 42
8.0
 43
8.0
 50
270.0
  0
MTEXT
  5
781
330
77B
100
AcDbEntity
  8
1
 62
     0
370
     9
100
AcDbMText
 10
355.5736567405709
 20
297.1369976152285
 30
0.0
 40
8.0
 41
0.0
 71
     5
 72
     1
  1
\A1;160
 11
0.0000000000000001
 21
1.0
 31
0.0
 73
     1
 44
1.0
1001
ACAD
1000
MTEXTBEGIN
1070
    73
1070
     1
1070
    44
1040
1.0
1070
    74
1070
     0
1000
MTEXTEND
  0
POINT
  5
782
330
77B
100
AcDbEntity
  8
Defpoints
 62
     0
100
AcDbPoint
 10
316.7705727968586
 20
377.1369976152248
 30
0.0
  0
POINT
  5
783
330
77B
100
AcDbEntity
  8
Defpoints
 62
     0
100
AcDbPoint
 10
318.7767267011058
 20
217.1369976152321
 30
0.0
  0
POINT
  5
784
330
77B
100
AcDbEntity
  8
Defpoints
 62
     0
100
AcDbPoint
 10
347.573656740571
 20
217.1369976152321
 30
0.0
  0
ENDBLK
  5
786
330
77B
100
AcDbEntity
  8
0
100
AcDbBlockEnd
  0
BLOCK
  5
791
330
787
100
AcDbEntity
  8
0
100
AcDbBlockBegin
  2
*D52
 70
     1
 10
0.0
 20
0.0
 30
0.0
  3
*D52
  1

  0
LINE
  5
788
330
787
100
AcDbEntity
  8
1
 62
     0
370
    -2
100
AcDbLine
 10
266.2705727968622
 20
397.1369976152321
 30
0.0
 11
250.8529697454814
 21
397.1369976152321
 31
0.0
  0
LINE
  5
789
330
787
100
AcDbEntity
  8
1
 62
     0
370
    -2
100
AcDbLine
 10
266.2705727968622
 20
197.1369976152284
 30
0.0
 11
250.8529697454814
 21
197.1369976152284
 31
0.0
  0
LINE
  5
78A
330
787
100
AcDbEntity
  8
1
 62
     0
370
    -2
100
AcDbLine
 10
251.8529697454814
 20
389.1369976152321
 30
0.0
 11
251.8529697454813
 21
205.1369976152285
 31
0.0
  0
INSERT
  5
78B
330
787
100
AcDbEntity
  8
1
 62
     0
370
    -2
100
AcDbBlockReference
  2
_Open30
 10
251.8529697454814
 20
397.1369976152321
 30
0.0
 41
8.0
 42
8.0
 43
8.0
 50
90.0
  0
INSERT
  5
78C
330
787
100
AcDbEntity
  8
1
 62
     0
370
    -2
100
AcDbBlockReference
  2
_Open30
 10
251.8529697454813
 20
197.1369976152284
 30
0.0
 41
8.0
 42
8.0
 43
8.0
 50
270.0
  0
MTEXT
  5
78D
330
787
100
AcDbEntity
  8
1
 62
     0
370
     9
100
AcDbMText
 10
243.8529697454813
 20
297.1369976152303
 30
0.0
 40
8.0
 41
0.0
 71
     5
 72
     1
  1
\A1;200
 11
0.0000000000000001
 21
1.0
 31
0.0
 73
     1
 44
1.0
1001
ACAD
1000
MTEXTBEGIN
1070
    73
1070
     1
1070
    44
1040
1.0
1070
    74
1070
     0
1000
MTEXTEND
  0
POINT
  5
78E
330
787
100
AcDbEntity
  8
Defpoints
 62
     0
100
AcDbPoint
 10
271.2705727968622
 20
397.1369976152321
 30
0.0
  0
POINT
  5
78F
330
787
100
AcDbEntity
  8
Defpoints
 62
     0
100
AcDbPoint
 10
271.2705727968622
 20
197.1369976152284
 30
0.0
  0
POINT
  5
790
330
787
100
AcDbEntity
  8
Defpoints
 62
     0
100
AcDbPoint
 10
251.8529697454813
 20
197.1369976152284
 30
0.0
  0
ENDBLK
  5
792
330
787
100
AcDbEntity
  8
0
100
AcDbBlockEnd
  0
BLOCK
  5
79E
330
793
100
AcDbEntity
  8
0
100
AcDbBlockBegin
  2
*D53
 70
     1
 10
0.0
 20
0.0
 30
0.0
  3
*D53
  1

  0
LINE
  5
794
330
793
100
AcDbEntity
  8
1
 62
     0
370
    -2
100
AcDbLine
 10
316.7705727968586
 20
212.1369976152357
 30
0.0
 11
316.7705727968586
 21
177.4286395574538
 31
0.0
  0
LINE
  5
795
330
793
100
AcDbEntity
  8
1
 62
     0
370
    -2
100
AcDbLine
 10
326.2705727968622
 20
192.1369976152284
 30
0.0
 11
326.2705727968622
 21
177.4286395574538
 31
0.0
  0
LINE
  5
796
330
793
100
AcDbEntity
  8
1
 62
     0
370
    -2
100
AcDbLine
 10
308.7705727968586
 20
178.4286395574538
 30
0.0
 11
300.7705727968586
 21
178.4286395574538
 31
0.0
  0
LINE
  5
797
330
793
100
AcDbEntity
  8
1
 62
     0
370
    -2
100
AcDbLine
 10
334.2705727968622
 20
178.4286395574538
 30
0.0
 11
366.2705727968622
 21
178.4286395574538
 31
0.0
  0
INSERT
  5
798
330
793
100
AcDbEntity
  8
1
 62
     0
370
    -2
100
AcDbBlockReference
  2
_Open30
 10
316.7705727968586
 20
178.4286395574538
 30
0.0
 41
8.0
 42
8.0
 43
8.0
  0
INSERT
  5
799
330
793
100
AcDbEntity
  8
1
 62
     0
370
    -2
100
AcDbBlockReference
  2
_Open30
 10
326.2705727968622
 20
178.4286395574538
 30
0.0
 41
8.0
 42
8.0
 43
8.0
 50
180.0
  0
MTEXT
  5
79A
330
793
100
AcDbEntity
  8
1
 62
     0
370
     9
100
AcDbMText
 10
354.2705727968622
 20
170.4286395574538
 30
0.0
 40
8.0
 41
0.0
 71
     5
 72
     1
  1
\A1;9.5
 73
     1
 44
1.0
1001
ACAD
1000
MTEXTBEGIN
1070
    73
1070
     1
1070
    44
1040
1.0
1070
    74
1070
     0
1000
MTEXTEND
  0
POINT
  5
79B
330
793
100
AcDbEntity
  8
Defpoints
 62
     0
100
AcDbPoint
 10
316.7705727968586
 20
217.1369976152357
 30
0.0
  0
POINT
  5
79C
330
793
100
AcDbEntity
  8
Defpoints
 62
     0
100
AcDbPoint
 10
326.2705727968622
 20
197.1369976152284
 30
0.0
  0
POINT
  5
79D
330
793
100
AcDbEntity
  8
Defpoints
 62
     0
100
AcDbPoint
 10
326.2705727968622
 20
178.4286395574538
 30
0.0
  0
ENDBLK
  5
79F
330
793
100
AcDbEntity
  8
0
100
AcDbBlockEnd
  0
BLOCK
  5
7AB
330
7A0
100
AcDbEntity
  8
0
100
AcDbBlockBegin
  2
*D54
 70
     1
 10
0.0
 20
0.0
 30
0.0
  3
*D54
  1

  0
LINE
  5
7A1
330
7A0
100
AcDbEntity
  8
1
 62
     0
370
    -2
100
AcDbLine
 10
165.706646828943
 20
397.1369976162616
 30
0.0
 11
186.4393548323077
 21
397.1369976162616
 31
0.0
  0
LINE
  5
7A2
330
7A0
100
AcDbEntity
  8
1
 62
     0
370
    -2
100
AcDbLine
 10
166.9678751107948
 20
387.1369976162616
 30
0.0
 11
186.4393548323077
 21
387.1369976162616
 31
0.0
  0
LINE
  5
7A3
330
7A0
100
AcDbEntity
  8
1
 62
     0
370
    -2
100
AcDbLine
 10
185.4393548323077
 20
405.1369976162616
 30
0.0
 11
185.4393548323077
 21
413.1369976162615
 31
0.0
  0
LINE
  5
7A4
330
7A0
100
AcDbEntity
  8
1
 62
     0
370
    -2
100
AcDbLine
 10
185.4393548323077
 20
379.1369976162616
 30
0.0
 11
185.4393548323077
 21
371.1369976162616
 31
0.0
  0
INSERT
  5
7A5
330
7A0
100
AcDbEntity
  8
1
 62
     0
370
    -2
100
AcDbBlockReference
  2
_Open30
 10
185.4393548323077
 20
397.1369976162616
 30
0.0
 41
8.0
 42
8.0
 43
8.0
 50
270.0
  0
INSERT
  5
7A6
330
7A0
100
AcDbEntity
  8
1
 62
     0
370
    -2
100
AcDbBlockReference
  2
_Open30
 10
185.4393548323077
 20
387.1369976162616
 30
0.0
 41
8.0
 42
8.0
 43
8.0
 50
90.0
  0
MTEXT
  5
7A7
330
7A0
100
AcDbEntity
  8
1
 62
     0
370
     9
100
AcDbMText
 10
193.4393548323077
 20
392.1369976162617
 30
0.0
 40
8.0
 41
0.0
 71
     5
 72
     1
  1
\A1;10
 11
0.0000000000000001
 21
1.0
 31
0.0
 73
     1
 44
1.0
1001
ACAD
1000
MTEXTBEGIN
1070
    73
1070
     1
1070
    44
1040
1.0
1070
    74
1070
     0
1000
MTEXTEND
  0
POINT
  5
7A8
330
7A0
100
AcDbEntity
  8
Defpoints
 62
     0
100
AcDbPoint
 10
160.706646828943
 20
397.1369976162616
 30
0.0
  0
POINT
  5
7A9
330
7A0
100
AcDbEntity
  8
Defpoints
 62
     0
100
AcDbPoint
 10
161.9678751107948
 20
387.1369976162616
 30
0.0
  0
POINT
  5
7AA
330
7A0
100
AcDbEntity
  8
Defpoints
 62
     0
100
AcDbPoint
 10
185.4393548323077
 20
387.1369976162616
 30
0.0
  0
ENDBLK
  5
7AC
330
7A0
100
AcDbEntity
  8
0
100
AcDbBlockEnd
  0
BLOCK
  5
7CA
330
7BF
100
AcDbEntity
  8
0
100
AcDbBlockBegin
  2
*D55
 70
     1
 10
0.0
 20
0.0
 30
0.0
  3
*D55
  1

  0
LINE
  5
7C0
330
7BF
100
AcDbEntity
  8
1
 62
     0
370
    -2
100
AcDbLine
 10
111.9678751129921
 20
197.1369976142025
 30
0.0
 11
96.68350450412427
 21
197.1369976142025
 31
0.0
  0
LINE
  5
7C1
330
7BF
100
AcDbEntity
  8
1
 62
     0
370
    -2
100
AcDbLine
 10
111.9678751129921
 20
207.1369976142025
 30
0.0
 11
96.68350450412427
 21
207.1369976142025
 31
0.0
  0
LINE
  5
7C2
330
7BF
100
AcDbEntity
  8
1
 62
     0
370
    -2
100
AcDbLine
 10
97.68350450412427
 20
189.1369976142025
 30
0.0
 11
97.68350450412427
 21
181.1369976142025
 31
0.0
  0
LINE
  5
7C3
330
7BF
100
AcDbEntity
  8
1
 62
     0
370
    -2
100
AcDbLine
 10
97.68350450412427
 20
215.1369976142025
 30
0.0
 11
97.68350450412427
 21
223.1369976142025
 31
0.0
  0
INSERT
  5
7C4
330
7BF
100
AcDbEntity
  8
1
 62
     0
370
    -2
100
AcDbBlockReference
  2
_Open30
 10
97.68350450412427
 20
197.1369976142025
 30
0.0
 41
8.0
 42
8.0
 43
8.0
 50
90.0
  0
INSERT
  5
7C5
330
7BF
100
AcDbEntity
  8
1
 62
     0
370
    -2
100
AcDbBlockReference
  2
_Open30
 10
97.68350450412427
 20
207.1369976142025
 30
0.0
 41
8.0
 42
8.0
 43
8.0
 50
270.0
  0
MTEXT
  5
7C6
330
7BF
100
AcDbEntity
  8
1
 62
     0
370
     9
100
AcDbMText
 10
89.68350450412424
 20
202.1369976142025
 30
0.0
 40
8.0
 41
0.0
 71
     5
 72
     1
  1
\A1;10
 11
0.0000000000000001
 21
1.0
 31
0.0
 73
     1
 44
1.0
1001
ACAD
1000
MTEXTBEGIN
1070
    73
1070
     1
1070
    44
1040
1.0
1070
    74
1070
     0
1000
MTEXTEND
  0
POINT
  5
7C7
330
7BF
100
AcDbEntity
  8
Defpoints
 62
     0
100
AcDbPoint
 10
116.9678751129921
 20
197.1369976142025
 30
0.0
  0
POINT
  5
7C8
330
7BF
100
AcDbEntity
  8
Defpoints
 62
     0
100
AcDbPoint
 10
116.9678751129921
 20
207.1369976142025
 30
0.0
  0
POINT
  5
7C9
330
7BF
100
AcDbEntity
  8
Defpoints
 62
     0
100
AcDbPoint
 10
97.68350450412427
 20
207.1369976142025
 30
0.0
  0
ENDBLK
  5
7CB
330
7BF
100
AcDbEntity
  8
0
100
AcDbBlockEnd
  0
BLOCK
  5
7D6
330
7CC
100
AcDbEntity
  8
0
100
AcDbBlockBegin
  2
*D56
 70
     1
 10
0.0
 20
0.0
 30
0.0
  3
*D56
  1

  0
LINE
  5
7CD
330
7CC
100
AcDbEntity
  8
1
 62
     0
370
    -2
100
AcDbLine
 10
111.9678751129921
 20
207.1369976142025
 30
0.0
 11
96.68350450412424
 21
207.1369976142025
 31
0.0
  0
LINE
  5
7CE
330
7CC
100
AcDbEntity
  8
1
 62
     0
370
    -2
100
AcDbLine
 10
111.9678751129921
 20
274.1341826333003
 30
0.0
 11
96.68350450412425
 21
274.1341826333003
 31
0.0
  0
LINE
  5
7CF
330
7CC
100
AcDbEntity
  8
1
 62
     0
370
    -2
100
AcDbLine
 10
97.68350450412423
 20
215.1369976142025
 30
0.0
 11
97.68350450412425
 21
266.1341826333003
 31
0.0
  0
INSERT
  5
7D0
330
7CC
100
AcDbEntity
  8
1
 62
     0
370
    -2
100
AcDbBlockReference
  2
_Open30
 10
97.68350450412423
 20
207.1369976142025
 30
0.0
 41
8.0
 42
8.0
 43
8.0
 50
270.0
  0
INSERT
  5
7D1
330
7CC
100
AcDbEntity
  8
1
 62
     0
370
    -2
100
AcDbBlockReference
  2
_Open30
 10
97.68350450412425
 20
274.1341826333003
 30
0.0
 41
8.0
 42
8.0
 43
8.0
 50
90.0
  0
MTEXT
  5
7D2
330
7CC
100
AcDbEntity
  8
1
 62
     0
370
     9
100
AcDbMText
 10
89.68350450412421
 20
240.6355901237514
 30
0.0
 40
8.0
 41
0.0
 71
     5
 72
     1
  1
\A1;67
 11
0.0000000000000001
 21
1.0
 31
0.0
 73
     1
 44
1.0
1001
ACAD
1000
MTEXTBEGIN
1070
    73
1070
     1
1070
    44
1040
1.0
1070
    74
1070
     0
1000
MTEXTEND
  0
POINT
  5
7D3
330
7CC
100
AcDbEntity
  8
Defpoints
 62
     0
100
AcDbPoint
 10
116.9678751129921
 20
207.1369976142025
 30
0.0
  0
POINT
  5
7D4
330
7CC
100
AcDbEntity
  8
Defpoints
 62
     0
100
AcDbPoint
 10
116.9678751129921
 20
274.1341826333003
 30
0.0
  0
POINT
  5
7D5
330
7CC
100
AcDbEntity
  8
Defpoints
 62
     0
100
AcDbPoint
 10
97.68350450412425
 20
274.1341826333003
 30
0.0
  0
ENDBLK
  5
7D7
330
7CC
100
AcDbEntity
  8
0
100
AcDbBlockEnd
  0
BLOCK
  5
7E2
330
7D8
100
AcDbEntity
  8
0
100
AcDbBlockBegin
  2
*D57
 70
     1
 10
0.0
 20
0.0
 30
0.0
  3
*D57
  1

  0
LINE
  5
7D9
330
7D8
100
AcDbEntity
  8
1
 62
     0
370
    -2
100
AcDbLine
 10
111.9678751129921
 20
274.1341826333003
 30
0.0
 11
96.68350450412422
 21
274.1341826333003
 31
0.0
  0
LINE
  5
7DA
330
7D8
100
AcDbEntity
  8
1
 62
     0
370
    -2
100
AcDbLine
 10
111.9678751129921
 20
358.1293812048091
 30
0.0
 11
96.68350450412425
 21
358.1293812048091
 31
0.0
  0
LINE
  5
7DB
330
7D8
100
AcDbEntity
  8
1
 62
     0
370
    -2
100
AcDbLine
 10
97.68350450412421
 20
282.1341826333003
 30
0.0
 11
97.68350450412423
 21
350.1293812048091
 31
0.0
  0
INSERT
  5
7DC
330
7D8
100
AcDbEntity
  8
1
 62
     0
370
    -2
100
AcDbBlockReference
  2
_Open30
 10
97.68350450412421
 20
274.1341826333003
 30
0.0
 41
8.0
 42
8.0
 43
8.0
 50
270.0
  0
INSERT
  5
7DD
330
7D8
100
AcDbEntity
  8
1
 62
     0
370
    -2
100
AcDbBlockReference
  2
_Open30
 10
97.68350450412425
 20
358.1293812048091
 30
0.0
 41
8.0
 42
8.0
 43
8.0
 50
90.0
  0
MTEXT
  5
7DE
330
7D8
100
AcDbEntity
  8
1
 62
     0
370
     9
100
AcDbMText
 10
89.68350450412417
 20
316.1317819190547
 30
0.0
 40
8.0
 41
0.0
 71
     5
 72
     1
  1
\A1;84
 11
0.0000000000000001
 21
1.0
 31
0.0
 73
     1
 44
1.0
1001
ACAD
1000
MTEXTBEGIN
1070
    73
1070
     1
1070
    44
1040
1.0
1070
    74
1070
     0
1000
MTEXTEND
  0
POINT
  5
7DF
330
7D8
100
AcDbEntity
  8
Defpoints
 62
     0
100
AcDbPoint
 10
116.9678751129921
 20
274.1341826333003
 30
0.0
  0
POINT
  5
7E0
330
7D8
100
AcDbEntity
  8
Defpoints
 62
     0
100
AcDbPoint
 10
116.9678751129921
 20
358.1293812048091
 30
0.0
  0
POINT
  5
7E1
330
7D8
100
AcDbEntity
  8
Defpoints
 62
     0
100
AcDbPoint
 10
97.68350450412425
 20
358.1293812048091
 30
0.0
  0
ENDBLK
  5
7E3
330
7D8
100
AcDbEntity
  8
0
100
AcDbBlockEnd
  0
BLOCK
  5
7F0
330
7E4
100
AcDbEntity
  8
0
100
AcDbBlockBegin
  2
*D58
 70
     1
 10
0.0
 20
0.0
 30
0.0
  3
*D58
  1

  0
LINE
  5
7E5
330
7E4
100
AcDbEntity
  8
1
 62
     0
370
    -2
100
AcDbLine
 10
798.4857925680483
 20
394.4077646107776
 30
0.0
 11
800.8192938270996
 21
407.6417078772906
 31
0.0
  0
LINE
  5
7E6
330
7E4
100
AcDbEntity
  8
1
 62
     0
370
    -2
100
AcDbLine
 10
689.1402550679503
 20
402.1369976162615
 30
0.0
 11
689.1402550679504
 21
417.4123577221879
 31
0.0
  0
ARC
  5
7E7
330
7E4
100
AcDbEntity
  8
1
 62
     0
370
    -2
100
AcDbCircle
 10
689.1402550679503
 20
-225.721594269887
 30
0.0
 40
642.133951992075
100
AcDbArc
 50
80.71382177984657
 51
89.28617822015395
  0
INSERT
  5
7E8
330
7E4
100
AcDbEntity
  8
1
 62
     0
370
    -2
100
AcDbBlockReference
  2
_Open30
 10
800.6456456494326
 20
406.6569001242783
 30
0.0
 41
8.0
 42
8.0
 43
8.0
 50
350.3569108899236
  0
INSERT
  5
7E9
330
7E4
100
AcDbEntity
  8
1
 62
     0
370
    -2
100
AcDbBlockReference
  2
_Open30
 10
689.1402550679503
 20
416.4123577221879
 30
0.0
 41
8.0
 42
8.0
 43
8.0
 50
179.643089110077
  0
MTEXT
  5
7EA
330
7E4
100
AcDbEntity
  8
1
 62
     0
370
     9
100
AcDbMText
 10
745.803162539287
 20
421.9384017540518
 30
0.0
 40
8.0
 41
0.0
 71
     5
 72
     1
  1
\A1;10\U+00B0
 11
0.996194698091746
 21
-0.0871557427476537
 31
0.0
 73
     1
 44
1.0
1001
ACAD
1000
MTEXTBEGIN
1070
    73
1070
     1
1070
    44
1040
1.0
1070
    74
1070
     0
1000
MTEXTEND
  0
POINT
  5
7EB
330
7E4
100
AcDbEntity
  8
Defpoints
 62
     0
100
AcDbPoint
 10
763.6874568134572
 20
412.0704776570656
 30
0.0
  0
POINT
  5
7EC
330
7E4
100
AcDbEntity
  8
Defpoints
 62
     0
100
AcDbPoint
 10
689.1402550679503
 20
397.1369976162616
 30
0.0
  0
POINT
  5
7ED
330
7E4
100
AcDbEntity
  8
Defpoints
 62
     0
100
AcDbPoint
 10
797.6175516797136
 20
389.4837258457166
 30
0.0
  0
POINT
  5
7EE
330
7E4
100
AcDbEntity
  8
Defpoints
 62
     0
100
AcDbPoint
 10
762.887916146328
 20
192.5221752432674
 30
0.0
  0
POINT
  5
7EF
330
7E4
100
AcDbEntity
  8
Defpoints
 62
     0
100
AcDbPoint
 10
689.1402550679503
 20
197.1369976142025
 30
0.0
  0
ENDBLK
  5
7F1
330
7E4
100
AcDbEntity
  8
0
100
AcDbBlockEnd
  0
BLOCK
  5
7FC
330
7F2
100
AcDbEntity
  8
0
100
AcDbBlockBegin
  2
*D59
 70
     1
 10
0.0
 20
0.0
 30
0.0
  3
*D59
  1

  0
LINE
  5
7F3
330
7F2
100
AcDbEntity
  8
1
 62
     0
370
    -2
100
AcDbLine
 10
686.6402550674482
 20
402.1369976162616
 30
0.0
 11
686.6402550674482
 21
444.0479378983375
 31
0.0
  0
LINE
  5
7F4
330
7F2
100
AcDbEntity
  8
1
 62
     0
370
    -2
100
AcDbLine
 10
811.4048602218844
 20
392.0526513583766
 30
0.0
 11
811.4048602218844
 21
444.0479378983375
 31
0.0
  0
LINE
  5
7F5
330
7F2
100
AcDbEntity
  8
1
 62
     0
370
    -2
100
AcDbLine
 10
694.6402550674482
 20
443.0479378983375
 30
0.0
 11
803.4048602218843
 21
443.0479378983375
 31
0.0
  0
INSERT
  5
7F6
330
7F2
100
AcDbEntity
  8
1
 62
     0
370
    -2
100
AcDbBlockReference
  2
_Open30
 10
686.6402550674482
 20
443.0479378983375
 30
0.0
 41
8.0
 42
8.0
 43
8.0
 50
180.0
  0
INSERT
  5
7F7
330
7F2
100
AcDbEntity
  8
1
 62
     0
370
    -2
100
AcDbBlockReference
  2
_Open30
 10
811.4048602218844
 20
443.0479378983375
 30
0.0
 41
8.0
 42
8.0
 43
8.0
  0
MTEXT
  5
7F8
330
7F2
100
AcDbEntity
  8
1
 62
     0
370
     9
100
AcDbMText
 10
749.0225576446663
 20
451.0479378983375
 30
0.0
 40
8.0
 41
0.0
 71
     5
 72
     1
  1
\A1;124.8
 73
     1
 44
1.0
1001
ACAD
1000
MTEXTBEGIN
1070
    73
1070
     1
1070
    44
1040
1.0
1070
    74
1070
     0
1000
MTEXTEND
  0
POINT
  5
7F9
330
7F2
100
AcDbEntity
  8
Defpoints
 62
     0
100
AcDbPoint
 10
686.6402550674482
 20
397.1369976162616
 30
0.0
  0
POINT
  5
7FA
330
7F2
100
AcDbEntity
  8
Defpoints
 62
     0
100
AcDbPoint
 10
811.4048602218844
 20
387.0526513583766
 30
0.0
  0
POINT
  5
7FB
330
7F2
100
AcDbEntity
  8
Defpoints
 62
     0
100
AcDbPoint
 10
811.4048602218844
 20
443.0479378983375
 30
0.0
  0
ENDBLK
  5
7FD
330
7F2
100
AcDbEntity
  8
0
100
AcDbBlockEnd
  0
BLOCK
  5
824
330
81A
100
AcDbEntity
  8
0
100
AcDbBlockBegin
  2
*D60
 70
     1
 10
0.0
 20
0.0
 30
0.0
  3
*D60
  1

  0
LINE
  5
81B
330
81A
100
AcDbEntity
  8
1
 62
     0
370
    -2
100
AcDbLine
 10
316.7705727968586
 20
212.1369976152357
 30
0.0
 11
316.7705727968586
 21
177.4286395574538
 31
0.0
  0
LINE
  5
81C
330
81A
100
AcDbEntity
  8
1
 62
     0
370
    -2
100
AcDbLine
 10
280.7705727968622
 20
212.1369976152357
 30
0.0
 11
280.7705727968622
 21
177.4286395574538
 31
0.0
  0
LINE
  5
81D
330
81A
100
AcDbEntity
  8
1
 62
     0
370
    -2
100
AcDbLine
 10
308.7705727968586
 20
178.4286395574538
 30
0.0
 11
288.7705727968622
 21
178.4286395574538
 31
0.0
  0
INSERT
  5
81E
330
81A
100
AcDbEntity
  8
1
 62
     0
370
    -2
100
AcDbBlockReference
  2
_Open30
 10
316.7705727968586
 20
178.4286395574538
 30
0.0
 41
8.0
 42
8.0
 43
8.0
  0
INSERT
  5
81F
330
81A
100
AcDbEntity
  8
1
 62
     0
370
    -2
100
AcDbBlockReference
  2
_Open30
 10
280.7705727968622
 20
178.4286395574538
 30
0.0
 41
8.0
 42
8.0
 43
8.0
 50
180.0
  0
MTEXT
  5
820
330
81A
100
AcDbEntity
  8
1
 62
     0
370
     9
100
AcDbMText
 10
298.7705727968604
 20
170.4286395574538
 30
0.0
 40
8.0
 41
0.0
 71
     5
 72
     1
  1
\A1;36
 73
     1
 44
1.0
1001
ACAD
1000
MTEXTBEGIN
1070
    73
1070
     1
1070
    44
1040
1.0
1070
    74
1070
     0
1000
MTEXTEND
  0
POINT
  5
821
330
81A
100
AcDbEntity
  8
Defpoints
 62
     0
100
AcDbPoint
 10
316.7705727968586
 20
217.1369976152357
 30
0.0
  0
POINT
  5
822
330
81A
100
AcDbEntity
  8
Defpoints
 62
     0
100
AcDbPoint
 10
280.7705727968622
 20
217.1369976152357
 30
0.0
  0
POINT
  5
823
330
81A
100
AcDbEntity
  8
Defpoints
 62
     0
100
AcDbPoint
 10
280.7705727968622
 20
178.4286395574538
 30
0.0
  0
ENDBLK
  5
825
330
81A
100
AcDbEntity
  8
0
100
AcDbBlockEnd
  0
BLOCK
  5
842
330
838
100
AcDbEntity
  8
0
100
AcDbBlockBegin
  2
*D61
 70
     1
 10
0.0
 20
0.0
 30
0.0
  3
*D61
  1

  0
LINE
  5
839
330
838
100
AcDbEntity
  8
1
 62
     0
370
    -2
100
AcDbLine
 10
166.9678751107948
 20
197.1369976142025
 30
0.0
 11
166.9678751107948
 21
155.7719774394002
 31
0.0
  0
LINE
  5
83A
330
838
100
AcDbEntity
  8
1
 62
     0
370
    -2
100
AcDbLine
 10
111.9678751129921
 20
197.1369976142025
 30
0.0
 11
111.9678751129921
 21
155.7719774394002
 31
0.0
  0
LINE
  5
83B
330
838
100
AcDbEntity
  8
1
 62
     0
370
    -2
100
AcDbLine
 10
158.9678751107948
 20
156.7719774394002
 30
0.0
 11
119.9678751129921
 21
156.7719774394002
 31
0.0
  0
INSERT
  5
83C
330
838
100
AcDbEntity
  8
1
 62
     0
370
    -2
100
AcDbBlockReference
  2
_Open30
 10
166.9678751107948
 20
156.7719774394002
 30
0.0
 41
8.0
 42
8.0
 43
8.0
  0
INSERT
  5
83D
330
838
100
AcDbEntity
  8
1
 62
     0
370
    -2
100
AcDbBlockReference
  2
_Open30
 10
111.9678751129921
 20
156.7719774394002
 30
0.0
 41
8.0
 42
8.0
 43
8.0
 50
180.0
  0
MTEXT
  5
83E
330
838
100
AcDbEntity
  8
1
 62
     0
370
     9
100
AcDbMText
 10
139.4678751118934
 20
148.7719774394002
 30
0.0
 40
8.0
 41
0.0
 71
     5
 72
     1
  1
\A1;55
 73
     1
 44
1.0
1001
ACAD
1000
MTEXTBEGIN
1070
    73
1070
     1
1070
    44
1040
1.0
1070
    74
1070
     0
1000
MTEXTEND
  0
POINT
  5
83F
330
838
100
AcDbEntity
  8
Defpoints
 62
     0
100
AcDbPoint
 10
166.9678751107948
 20
202.1369976142025
 30
0.0
  0
POINT
  5
840
330
838
100
AcDbEntity
  8
Defpoints
 62
     0
100
AcDbPoint
 10
111.9678751129921
 20
202.1369976142025
 30
0.0
  0
POINT
  5
841
330
838
100
AcDbEntity
  8
Defpoints
 62
     0
100
AcDbPoint
 10
111.9678751129921
 20
156.7719774394002
 30
0.0
  0
ENDBLK
  5
843
330
838
100
AcDbEntity
  8
0
100
AcDbBlockEnd
  0
BLOCK
  5
850
330
844
100
AcDbEntity
  8
0
100
AcDbBlockBegin
  2
*D62
 70
     1
 10
0.0
 20
0.0
 30
0.0
  3
*D62
  1

  0
LINE
  5
845
330
844
100
AcDbEntity
  8
1
 62
     0
370
    -2
100
AcDbLine
 10
768.1383042448595
 20
518.0636793298918
 30
0.0
 11
801.8350778096648
 21
518.0636793298918
 31
0.0
  0
LINE
  5
846
330
844
100
AcDbEntity
  8
1
 62
     0
370
    -2
100
AcDbLine
 10
722.8514738046889
 20
579.2653181301842
 30
0.0
 11
732.7034569354853
 21
611.4897029508163
 31
0.0
  0
ARC
  5
847
330
844
100
AcDbEntity
  8
1
 62
     0
370
    -2
100
AcDbCircle
 10
704.1402550678919
 20
518.063679329892
 30
0.0
 40
96.69482274177283
100
AcDbArc
 50
4.741691993125481
 51
68.2583080068772
  0
INSERT
  5
848
330
844
100
AcDbEntity
  8
1
 62
     0
370
    -2
100
AcDbBlockReference
  2
_Open30
 10
800.8350778096648
 20
518.0636793298918
 30
0.0
 41
8.0
 42
8.0
 43
8.0
 50
272.3708459965627
  0
INSERT
  5
849
330
844
100
AcDbEntity
  8
1
 62
     0
370
    -2
100
AcDbBlockReference
  2
_Open30
 10
732.4110852307625
 20
610.5333981948533
 30
0.0
 41
8.0
 42
8.0
 43
8.0
 50
160.62915400344
  0
MTEXT
  5
84A
330
844
100
AcDbEntity
  8
1
 62
     0
370
     9
100
AcDbMText
 10
788.2999065999682
 20
580.3385455515929
 30
0.0
 40
8.0
 41
0.0
 71
     5
 72
     1
  1
\A1;73\U+00B0
 11
0.5948227867513602
 21
-0.8038568606172034
 31
0.0
 73
     1
 44
1.0
1001
ACAD
1000
MTEXTBEGIN
1070
    73
1070
     1
1070
    44
1040
1.0
1070
    74
1070
     0
1000
MTEXTEND
  0
POINT
  5
84B
330
844
100
AcDbEntity
  8
Defpoints
 62
     0
100
AcDbPoint
 10
792.2450687910814
 20
557.9062513335287
 30
0.0
  0
POINT
  5
84C
330
844
100
AcDbEntity
  8
Defpoints
 62
     0
100
AcDbPoint
 10
704.1402550678919
 20
518.063679329892
 30
0.0
  0
POINT
  5
84D
330
844
100
AcDbEntity
  8
Defpoints
 62
     0
100
AcDbPoint
 10
704.1402550678919
 20
518.063679329892
 30
0.0
  0
POINT
  5
84E
330
844
100
AcDbEntity
  8
Defpoints
 62
     0
100
AcDbPoint
 10
763.1383042448594
 20
518.063679329892
 30
0.0
  0
POINT
  5
84F
330
844
100
AcDbEntity
  8
Defpoints
 62
     0
100
AcDbPoint
 10
721.3896152810755
 20
574.483794350369
 30
0.0
  0
ENDBLK
  5
851
330
844
100
AcDbEntity
  8
0
100
AcDbBlockEnd
  0
ENDSEC
  0
SECTION
  2
ENTITIES
  0
LINE
  5
479
330
1F
100
AcDbEntity
  8
1
100
AcDbLine
 10
696.1402550672191
 20
347.1369976163016
 30
0.0
 11
729.2250842352022
 21
347.1369976163016
 31
0.0
  0
LINE
  5
47A
330
1F
100
AcDbEntity
  8
1
100
AcDbLine
 10
749.8392574491353
 20
347.1369976163016
 30
0.0
 11
757.1402550659603
 21
347.1369976163016
 31
0.0
  0
CIRCLE
  5
47B
330
1F
100
AcDbEntity
  8
1
100
AcDbCircle
 10
161.9678751107948
 20
320.1398125971657
 30
0.0
 40
2.5
  0
LINE
  5
47C
330
1F
100
AcDbEntity
  8
1
100
AcDbLine
 10
147.467875111355
 20
243.1369976157032
 30
0.0
 11
147.467875111355
 21
247.1369976141625
 31
0.0
  0
CIRCLE
  5
47D
330
1F
100
AcDbEntity
  8
1
100
AcDbCircle
 10
161.9678751107948
 20
236.1446140256551
 30
0.0
 40
2.5
  0
CIRCLE
  5
47E
102
{ACAD_REACTORS
330
5D4
102
}
330
1F
100
AcDbEntity
  8
1
100
AcDbCircle
 10
161.9678751107948
 20
387.1369976162616
 30
0.0
 40
2.5
  0
CIRCLE
  5
47F
102
{ACAD_REACTORS
330
5DF
102
}
330
1F
100
AcDbEntity
  8
1
100
AcDbCircle
 10
116.9678751129921
 20
358.1293812048091
 30
0.0
 40
2.5
  0
CIRCLE
  5
480
102
{ACAD_REACTORS
330
5DC
102
}
330
1F
100
AcDbEntity
  8
1
100
AcDbCircle
 10
116.9678751129921
 20
274.1341826333003
 30
0.0
 40
2.5
  0
CIRCLE
  5
481
102
{ACAD_REACTORS
330
5D9
102
}
330
1F
100
AcDbEntity
  8
1
100
AcDbCircle
 10
116.9678751129921
 20
207.1369976142025
 30
0.0
 40
2.5
  0
LINE
  5
482
330
1F
100
AcDbEntity
  8
1
100
AcDbLine
 10
161.9678751107948
 20
397.1369976162616
 30
0.0
 11
116.9678751129921
 21
397.1369976162616
 31
0.0
  0
LINE
  5
483
330
1F
100
AcDbEntity
  8
1
100
AcDbLine
 10
128.9678751119335
 20
351.1369976147628
 30
0.0
 11
149.9678751118534
 21
351.1369976147628
 31
0.0
  0
LINE
  5
484
330
1F
100
AcDbEntity
  8
1
100
AcDbLine
 10
131.4678751124319
 20
347.1369976163016
 30
0.0
 11
147.467875111355
 21
347.1369976163016
 31
0.0
  0
LINE
  5
485
330
1F
100
AcDbEntity
  8
1
100
AcDbLine
 10
149.9678751118534
 20
328.1369976148628
 30
0.0
 11
128.9678751119335
 21
328.1369976148628
 31
0.0
  0
LINE
  5
486
330
1F
100
AcDbEntity
  8
1
100
AcDbLine
 10
111.9678751129921
 20
392.1369976162616
 30
0.0
 11
111.9678751129921
 21
202.1369976142025
 31
0.0
  0
LINE
  5
487
330
1F
100
AcDbEntity
  8
1
100
AcDbLine
 10
128.9678751119335
 20
328.1369976148628
 30
0.0
 11
128.9678751119335
 21
351.1369976147628
 31
0.0
  0
LINE
  5
488
330
1F
100
AcDbEntity
  8
1
100
AcDbLine
 10
128.9678751119335
 20
266.1369976156032
 30
0.0
 11
128.9678751119335
 21
243.1369976157032
 31
0.0
  0
LINE
  5
489
330
1F
100
AcDbEntity
  8
1
100
AcDbLine
 10
131.4678751124319
 20
243.1369976157032
 30
0.0
 11
131.4678751124319
 21
247.1369976141625
 31
0.0
  0
LINE
  5
48A
330
1F
100
AcDbEntity
  8
1
100
AcDbLine
 10
131.4678751124319
 20
347.1369976163016
 30
0.0
 11
131.4678751124319
 21
351.1369976147628
 31
0.0
  0
LINE
  5
48B
330
1F
100
AcDbEntity
  8
1
100
AcDbLine
 10
147.467875111355
 20
351.1369976147628
 30
0.0
 11
147.467875111355
 21
347.1369976163016
 31
0.0
  0
LINE
  5
48C
330
1F
100
AcDbEntity
  8
1
100
AcDbLine
 10
147.467875111355
 20
247.1369976141625
 30
0.0
 11
147.467875111355
 21
243.1369976157032
 31
0.0
  0
LINE
  5
48D
330
1F
100
AcDbEntity
  8
1
100
AcDbLine
 10
149.9678751118534
 20
243.1369976157032
 30
0.0
 11
149.9678751118534
 21
266.1369976156032
 31
0.0
  0
LINE
  5
48E
330
1F
100
AcDbEntity
  8
1
100
AcDbLine
 10
149.9678751118534
 20
351.1369976147628
 30
0.0
 11
149.9678751118534
 21
328.1369976148628
 31
0.0
  0
LINE
  5
48F
330
1F
100
AcDbEntity
  8
1
100
AcDbLine
 10
166.9678751107948
 20
202.1369976142025
 30
0.0
 11
166.9678751107948
 21
392.1369976162616
 31
0.0
  0
LINE
  5
490
330
1F
100
AcDbEntity
  8
1
100
AcDbLine
 10
149.9678751118534
 20
266.1369976156032
 30
0.0
 11
128.9678751119335
 21
266.1369976156032
 31
0.0
  0
LINE
  5
491
330
1F
100
AcDbEntity
  8
1
100
AcDbLine
 10
147.467875111355
 20
247.1369976141625
 30
0.0
 11
131.4678751124319
 21
247.1369976141625
 31
0.0
  0
LINE
  5
492
330
1F
100
AcDbEntity
  8
1
100
AcDbLine
 10
149.9678751118534
 20
243.1369976157032
 30
0.0
 11
128.9678751119335
 21
243.1369976157032
 31
0.0
  0
LINE
  5
493
330
1F
100
AcDbEntity
  8
1
100
AcDbLine
 10
116.9678751129921
 20
197.1369976142025
 30
0.0
 11
161.9678751107948
 21
197.1369976142025
 31
0.0
  0
ARC
  5
494
330
1F
100
AcDbEntity
  8
1
100
AcDbCircle
 10
161.9678751107948
 20
392.1369976162616
 30
0.0
 40
5.0
100
AcDbArc
 50
0.0
 51
90.0
  0
ARC
  5
495
330
1F
100
AcDbEntity
  8
1
100
AcDbCircle
 10
116.9678751129921
 20
392.1369976162616
 30
0.0
 40
5.0
100
AcDbArc
 50
90.0
 51
180.0
  0
ARC
  5
496
102
{ACAD_REACTORS
330
5F0
102
}
330
1F
100
AcDbEntity
  8
1
100
AcDbCircle
 10
161.9678751107948
 20
202.1369976142025
 30
0.0
 40
5.0
100
AcDbArc
 50
270.0
 51
0.0
  0
ARC
  5
497
102
{ACAD_REACTORS
330
5D9
330
5F0
102
}
330
1F
100
AcDbEntity
  8
1
100
AcDbCircle
 10
116.9678751129921
 20
202.1369976142025
 30
0.0
 40
5.0
100
AcDbArc
 50
180.0
 51
270.0
  0
CIRCLE
  5
498
330
1F
100
AcDbEntity
  8
1
100
AcDbCircle
 10
139.4678751118934
 20
382.1369976162616
 30
0.0
 40
5.0
  0
CIRCLE
  5
499
330
1F
100
AcDbEntity
  8
1
100
AcDbCircle
 10
139.4678751118934
 20
212.1369976142025
 30
0.0
 40
5.0
  0
LINE
  5
49A
102
{ACAD_REACTORS
330
5D1
102
}
330
1F
100
AcDbEntity
  8
1
100
AcDbLine
 10
326.2705727968622
 20
397.1369976152321
 30
0.0
 11
326.2705727968622
 21
197.1369976152284
 31
0.0
  0
LINE
  5
49B
330
1F
100
AcDbEntity
  8
1
100
AcDbLine
 10
271.2705727968622
 20
397.1369976152321
 30
0.0
 11
271.2705727968622
 21
197.1369976152284
 31
0.0
  0
LINE
  5
49C
102
{ACAD_REACTORS
330
5C5
330
5CE
102
}
330
1F
100
AcDbEntity
  8
1
100
AcDbLine
 10
271.2705727968622
 20
397.1369976152321
 30
0.0
 11
326.2705727968586
 21
397.1369976152321
 31
0.0
  0
LINE
  5
49D
102
{ACAD_REACTORS
330
5CE
102
}
330
1F
100
AcDbEntity
  8
1
100
AcDbLine
 10
271.2705727968622
 20
197.1369976152284
 30
0.0
 11
326.2705727968622
 21
197.1369976152284
 31
0.0
  0
LINE
  5
49E
330
1F
100
AcDbEntity
  8
1
100
AcDbLine
 10
273.2705727968622
 20
397.1369976152321
 30
0.0
 11
273.2705727968622
 21
197.1369976152284
 31
0.0
  0
LINE
  5
49F
330
1F
100
AcDbEntity
  8
1
100
AcDbLine
 10
324.2705727968622
 20
397.1369976152321
 30
0.0
 11
324.2705727968622
 21
197.1369976152284
 31
0.0
  0
CIRCLE
  5
4A0
102
{ACAD_REACTORS
330
5C5
330
5C8
102
}
330
1F
100
AcDbEntity
  8
1
100
AcDbCircle
 10
316.7705727968586
 20
377.1369976152248
 30
0.0
 40
2.25
  0
LINE
  5
4A1
330
1F
100
AcDbEntity
  8
1
100
AcDbLine
 10
425.9815196279649
 20
397.1369976162616
 30
0.0
 11
425.9815196279649
 21
197.1369976142025
 31
0.0
  0
LINE
  5
4A2
330
1F
100
AcDbEntity
  8
1
100
AcDbLine
 10
425.9815196279649
 20
397.1369976162616
 30
0.0
 11
423.4815196274629
 21
397.1369976162616
 31
0.0
  0
LINE
  5
4A3
330
1F
100
AcDbEntity
  8
1
100
AcDbLine
 10
448.9815196273647
 20
349.6369976142625
 30
0.0
 11
427.9815196259241
 21
349.6369976142625
 31
0.0
  0
LINE
  5
4A4
330
1F
100
AcDbEntity
  8
1
100
AcDbLine
 10
448.9815196273647
 20
347.1369976163016
 30
0.0
 11
427.9815196259241
 21
347.1369976163016
 31
0.0
  0
LINE
  5
4A5
330
1F
100
AcDbEntity
  8
1
100
AcDbLine
 10
448.9815196273647
 20
244.6369976162034
 30
0.0
 11
448.9815196273647
 21
247.1369976141625
 31
0.0
  0
LINE
  5
4A6
330
1F
100
AcDbEntity
  8
1
100
AcDbLine
 10
448.9815196273647
 20
347.1369976163016
 30
0.0
 11
448.9815196273647
 21
349.6369976142625
 31
0.0
  0
LINE
  5
4A7
330
1F
100
AcDbEntity
  8
1
100
AcDbLine
 10
440.981519627965
 20
347.1369976163016
 30
0.0
 11
440.981519627965
 21
349.6369976142625
 31
0.0
  0
LINE
  5
4A8
330
1F
100
AcDbEntity
  8
1
100
AcDbLine
 10
423.4815196274629
 20
397.1369976162616
 30
0.0
 11
423.4815196274629
 21
197.1369976142025
 31
0.0
  0
LINE
  5
4A9
330
1F
100
AcDbEntity
  8
1
100
AcDbLine
 10
427.9815196259241
 20
247.1369976141625
 30
0.0
 11
448.9815196273647
 21
247.1369976141625
 31
0.0
  0
LINE
  5
4AA
330
1F
100
AcDbEntity
  8
1
100
AcDbLine
 10
448.9815196273647
 20
244.6369976162034
 30
0.0
 11
427.9815196259241
 21
244.6369976162034
 31
0.0
  0
LINE
  5
4AB
330
1F
100
AcDbEntity
  8
1
100
AcDbLine
 10
425.9815196279649
 20
197.1369976142025
 30
0.0
 11
423.4815196274629
 21
197.1369976142025
 31
0.0
  0
ARC
  5
4AC
330
1F
100
AcDbEntity
  8
1
100
AcDbCircle
 10
427.9815196259241
 20
243.1369976157014
 30
0.0
 40
4.000000001
100
AcDbArc
 50
90.0
 51
120.2074892604725
  0
ARC
  5
4AD
330
1F
100
AcDbEntity
  8
1
100
AcDbCircle
 10
427.9815196259241
 20
242.6369976157014
 30
0.0
 40
2.0000000005
100
AcDbArc
 50
90.0
 51
180.0
  0
ARC
  5
4AE
330
1F
100
AcDbEntity
  8
1
100
AcDbCircle
 10
427.9815196259241
 20
351.1369976147628
 30
0.0
 40
4.000000001
100
AcDbArc
 50
239.7925107395274
 51
270.0
  0
ARC
  5
4AF
330
1F
100
AcDbEntity
  8
1
100
AcDbCircle
 10
427.9815196259241
 20
351.6369976147628
 30
0.0
 40
2.0000000005
100
AcDbArc
 50
180.0
 51
270.0
  0
LINE
  5
4B0
330
1F
100
AcDbEntity
  8
1
100
AcDbLine
 10
433.1425196278159
 20
347.1369976163016
 30
0.0
 11
432.9815196272337
 21
346.9759976157213
 31
0.0
  0
LINE
  5
4B1
330
1F
100
AcDbEntity
  8
1
100
AcDbLine
 10
432.9815196272337
 20
247.1369976141625
 30
0.0
 11
493.981519625975
 21
247.1369976141625
 31
0.0
  0
LINE
  5
4B2
330
1F
100
AcDbEntity
  8
1
100
AcDbLine
 10
432.9815196272337
 20
247.1369976141625
 30
0.0
 11
432.9815196272337
 21
347.1369976163016
 31
0.0
  0
LINE
  5
4B3
330
1F
100
AcDbEntity
  8
1
100
AcDbLine
 10
493.981519625975
 20
347.1369976163016
 30
0.0
 11
482.9815196270336
 21
347.1369976163016
 31
0.0
  0
LINE
  5
4B4
330
1F
100
AcDbEntity
  8
1
100
AcDbLine
 10
432.9815196272337
 20
347.1369976163016
 30
0.0
 11
474.9815196275757
 21
347.1369976163016
 31
0.0
  0
LINE
  5
4B5
330
1F
100
AcDbEntity
  8
1
100
AcDbLine
 10
444.9815196276921
 20
347.1369976163016
 30
0.0
 11
436.9815196282342
 21
347.1369976163016
 31
0.0
  0
LINE
  5
4B6
330
1F
100
AcDbEntity
  8
1
100
AcDbLine
 10
510.9815196251819
 20
347.136997615032
 30
0.0
 11
450.9815196253856
 21
347.136997615032
 31
0.0
  0
LINE
  5
4B7
102
{ACAD_REACTORS
330
5C2
102
}
330
1F
100
AcDbEntity
  8
1
100
AcDbLine
 10
510.9815196251819
 20
347.136997615032
 30
0.0
 11
510.9815196251819
 21
247.1369976154321
 31
0.0
  0
LINE
  5
4B8
330
1F
100
AcDbEntity
  8
1
100
AcDbLine
 10
463.2786075520725
 20
329.1487365475507
 30
0.0
 11
461.4229835912827
 21
337.1863269677717
 31
0.0
  0
LINE
  5
4B9
330
1F
100
AcDbEntity
  8
1
100
AcDbLine
 10
450.9815196253856
 20
347.136997615032
 30
0.0
 11
450.9815196253856
 21
247.1369976154321
 31
0.0
  0
LINE
  5
4BA
330
1F
100
AcDbEntity
  8
1
100
AcDbLine
 10
510.9815196251819
 20
247.1369976154321
 30
0.0
 11
450.9815196253856
 21
247.1369976154321
 31
0.0
  0
ARC
  5
4BB
330
1F
100
AcDbEntity
  8
1
100
AcDbCircle
 10
478.9815196247672
 20
259.1369976133531
 30
0.0
 40
80.24999999967999
100
AcDbArc
 50
94.93245629839957
 51
102.678592600814
  0
ARC
  5
4BC
330
1F
100
AcDbEntity
  8
1
100
AcDbCircle
 10
478.9815196247672
 20
259.1369976133531
 30
0.0
 40
71.75113264718
100
AcDbArc
 50
94.80063681706248
 51
102.6416415483208
  0
LINE
  5
4BD
330
1F
100
AcDbEntity
  8
1
100
AcDbLine
 10
520.2318095692915
 20
224.8887983358011
 30
0.0
 11
516.7312296810722
 21
224.8887983358011
 31
0.0
  0
LINE
  5
4BE
330
1F
100
AcDbEntity
  8
1
100
AcDbLine
 10
520.2318095692915
 20
229.3887983358011
 30
0.0
 11
516.7312296810722
 21
229.3887983358011
 31
0.0
  0
ARC
  5
4BF
330
1F
100
AcDbEntity
  8
1
100
AcDbCircle
 10
516.7312296810722
 20
227.1387983358011
 30
0.0
 40
2.25
100
AcDbArc
 50
90.0
 51
270.0
  0
ARC
  5
4C0
330
1F
100
AcDbEntity
  8
1
100
AcDbCircle
 10
520.2318095692915
 20
227.1387983358011
 30
0.0
 40
2.25
100
AcDbArc
 50
270.0
 51
90.0
  0
ARC
  5
4C1
330
1F
100
AcDbEntity
  8
1
100
AcDbCircle
 10
520.2318095692915
 20
367.1351968946631
 30
0.0
 40
2.25
100
AcDbArc
 50
270.0
 51
90.0
  0
ARC
  5
4C2
330
1F
100
AcDbEntity
  8
1
100
AcDbCircle
 10
516.7312296810722
 20
367.1351968946631
 30
0.0
 40
2.25
100
AcDbArc
 50
90.0
 51
270.0
  0
LINE
  5
4C3
330
1F
100
AcDbEntity
  8
1
100
AcDbLine
 10
520.2318095692915
 20
364.885196894663
 30
0.0
 11
516.7312296810722
 21
364.885196894663
 31
0.0
  0
LINE
  5
4C4
330
1F
100
AcDbEntity
  8
1
100
AcDbLine
 10
520.2318095692915
 20
369.3851968946631
 30
0.0
 11
516.7312296810722
 21
369.3851968946631
 31
0.0
  0
LINE
  5
4C5
330
1F
100
AcDbEntity
  8
1
100
AcDbLine
 10
510.9815196251819
 20
397.1369976152357
 30
0.0
 11
510.9815196251819
 21
197.1369976152284
 31
0.0
  0
LINE
  5
4C6
330
1F
100
AcDbEntity
  8
1
100
AcDbLine
 10
524.9815196251819
 20
397.1369976152321
 30
0.0
 11
524.9815196251819
 21
197.1369976152284
 31
0.0
  0
LINE
  5
4C7
102
{ACAD_REACTORS
330
590
102
}
330
1F
100
AcDbEntity
  8
1
100
AcDbLine
 10
524.9815196251819
 20
397.1369976152321
 30
0.0
 11
510.9815196251819
 21
397.1369976152321
 31
0.0
  0
LINE
  5
4C8
330
1F
100
AcDbEntity
  8
1
100
AcDbLine
 10
524.9815196251819
 20
197.1369976152284
 30
0.0
 11
510.9815196251819
 21
197.1369976152284
 31
0.0
  0
LINE
  5
4C9
330
1F
100
AcDbEntity
  8
1
100
AcDbLine
 10
472.0815196260353
 20
339.12071447325
 30
0.0
 11
478.9815196260332
 21
343.1044313306586
 31
0.0
  0
LINE
  5
4CA
330
1F
100
AcDbEntity
  8
1
100
AcDbLine
 10
485.8815196260346
 20
339.12071447325
 30
0.0
 11
478.9815196260332
 21
343.1044313306586
 31
0.0
  0
LINE
  5
4CB
330
1F
100
AcDbEntity
  8
1
100
AcDbLine
 10
472.0815196260317
 20
331.1532807584347
 30
0.0
 11
472.0815196260317
 21
339.12071447325
 31
0.0
  0
LINE
  5
4CC
330
1F
100
AcDbEntity
  8
1
100
AcDbLine
 10
485.8815196260346
 20
331.1532807584347
 30
0.0
 11
485.8815196260346
 21
339.12071447325
 31
0.0
  0
LINE
  5
4CD
330
1F
100
AcDbEntity
  8
1
100
AcDbLine
 10
472.0815196260353
 20
331.1532807584328
 30
0.0
 11
478.9815196260332
 21
327.1695639010261
 31
0.0
  0
LINE
  5
4CE
330
1F
100
AcDbEntity
  8
1
100
AcDbLine
 10
485.8815196260346
 20
331.1532807584328
 30
0.0
 11
478.9815196260332
 21
327.1695639010261
 31
0.0
  0
CIRCLE
  5
4CF
330
1F
100
AcDbEntity
  8
1
100
AcDbCircle
 10
478.9815196260332
 20
335.1369976158415
 30
0.0
 40
4.0
  0
LINE
  5
4D0
330
1F
100
AcDbEntity
  8
1
100
AcDbLine
 10
472.0815196260353
 20
263.1207144720295
 30
0.0
 11
478.9815196260332
 21
267.104431329438
 31
0.0
  0
LINE
  5
4D1
330
1F
100
AcDbEntity
  8
1
100
AcDbLine
 10
485.8815196260346
 20
263.1207144720295
 30
0.0
 11
478.9815196260332
 21
267.104431329438
 31
0.0
  0
LINE
  5
4D2
330
1F
100
AcDbEntity
  8
1
100
AcDbLine
 10
472.0815196260317
 20
255.1532807572141
 30
0.0
 11
472.0815196260317
 21
263.1207144720295
 31
0.0
  0
LINE
  5
4D3
330
1F
100
AcDbEntity
  8
1
100
AcDbLine
 10
485.8815196260346
 20
255.1532807572141
 30
0.0
 11
485.8815196260346
 21
263.1207144720295
 31
0.0
  0
LINE
  5
4D4
330
1F
100
AcDbEntity
  8
1
100
AcDbLine
 10
472.0815196260353
 20
255.1532807572141
 30
0.0
 11
478.9815196260332
 21
251.1695638998055
 31
0.0
  0
LINE
  5
4D5
330
1F
100
AcDbEntity
  8
1
100
AcDbLine
 10
485.8815196260346
 20
255.1532807572141
 30
0.0
 11
478.9815196260332
 21
251.1695638998055
 31
0.0
  0
CIRCLE
  5
4D6
330
1F
100
AcDbEntity
  8
1
100
AcDbCircle
 10
478.9815196260332
 20
259.1369976146209
 30
0.0
 40
4.0
  0
CIRCLE
  5
4D7
330
1F
100
AcDbEntity
  8
1
100
AcDbCircle
 10
478.9815196260332
 20
335.1369976158415
 30
0.0
 40
8.0
  0
CIRCLE
  5
4D8
330
1F
100
AcDbEntity
  8
1
100
AcDbCircle
 10
478.9815196260332
 20
259.1369976146209
 30
0.0
 40
8.0
  0
LINE
  5
4D9
330
1F
100
AcDbEntity
  8
1
100
AcDbLine
 10
447.8815196279628
 20
243.1369976162034
 30
0.0
 11
447.8815196279628
 21
237.1369976162034
 31
0.0
  0
LINE
  5
4DA
330
1F
100
AcDbEntity
  8
1
100
AcDbLine
 10
447.8815196279628
 20
237.1369976162034
 30
0.0
 11
434.0815196279635
 21
237.1369976162034
 31
0.0
  0
LINE
  5
4DB
330
1F
100
AcDbEntity
  8
1
100
AcDbLine
 10
434.0815196279635
 20
243.1369976162034
 30
0.0
 11
434.0815196279635
 21
237.1369976162034
 31
0.0
  0
LINE
  5
4DC
330
1F
100
AcDbEntity
  8
1
100
AcDbLine
 10
447.8815196279628
 20
243.1369976162034
 30
0.0
 11
434.0815196279635
 21
243.1369976162034
 31
0.0
  0
LINE
  5
4DD
330
1F
100
AcDbEntity
  8
1
100
AcDbLine
 10
440.981519627965
 20
243.1369976162034
 30
0.0
 11
440.981519627965
 21
237.1369976162034
 31
0.0
  0
LINE
  5
4DE
330
1F
100
AcDbEntity
  8
1
100
AcDbLine
 10
432.981519627965
 20
244.6369976162034
 30
0.0
 11
432.981519627965
 21
243.1369976162034
 31
0.0
  0
LINE
  5
4DF
330
1F
100
AcDbEntity
  8
1
100
AcDbLine
 10
432.981519627965
 20
243.1369976162034
 30
0.0
 11
448.9815196279649
 21
243.1369976162034
 31
0.0
  0
LINE
  5
4E0
330
1F
100
AcDbEntity
  8
1
100
AcDbLine
 10
448.9815196279649
 20
243.1369976162034
 30
0.0
 11
448.9815196279649
 21
244.6369976162034
 31
0.0
  0
LINE
  5
4E1
330
1F
100
AcDbEntity
  8
1
100
AcDbLine
 10
448.9815196279649
 20
244.6369976162034
 30
0.0
 11
432.981519627965
 21
244.6369976162034
 31
0.0
  0
LINE
  5
4E2
330
1F
100
AcDbEntity
  8
1
100
AcDbLine
 10
447.8815196279628
 20
351.1369976142607
 30
0.0
 11
447.8815196279628
 21
357.1369976142607
 31
0.0
  0
LINE
  5
4E3
330
1F
100
AcDbEntity
  8
1
100
AcDbLine
 10
447.8815196279628
 20
357.1369976142607
 30
0.0
 11
434.0815196279635
 21
357.1369976142607
 31
0.0
  0
LINE
  5
4E4
330
1F
100
AcDbEntity
  8
1
100
AcDbLine
 10
434.0815196279635
 20
351.1369976142607
 30
0.0
 11
434.0815196279635
 21
357.1369976142607
 31
0.0
  0
LINE
  5
4E5
330
1F
100
AcDbEntity
  8
1
100
AcDbLine
 10
447.8815196279628
 20
351.1369976142607
 30
0.0
 11
434.0815196279635
 21
351.1369976142607
 31
0.0
  0
LINE
  5
4E6
330
1F
100
AcDbEntity
  8
1
100
AcDbLine
 10
440.981519627965
 20
351.1369976142607
 30
0.0
 11
440.981519627965
 21
357.1369976142607
 31
0.0
  0
LINE
  5
4E7
330
1F
100
AcDbEntity
  8
1
100
AcDbLine
 10
432.981519627965
 20
349.6369976142607
 30
0.0
 11
432.981519627965
 21
351.1369976142607
 31
0.0
  0
LINE
  5
4E8
330
1F
100
AcDbEntity
  8
1
100
AcDbLine
 10
432.981519627965
 20
351.1369976142607
 30
0.0
 11
448.9815196279649
 21
351.1369976142607
 31
0.0
  0
LINE
  5
4E9
330
1F
100
AcDbEntity
  8
1
100
AcDbLine
 10
448.9815196279649
 20
351.1369976142607
 30
0.0
 11
448.9815196279649
 21
349.6369976142607
 31
0.0
  0
LINE
  5
4EA
330
1F
100
AcDbEntity
  8
1
100
AcDbLine
 10
448.9815196279649
 20
349.6369976142607
 30
0.0
 11
432.981519627965
 21
349.6369976142607
 31
0.0
  0
LINE
  5
4EB
330
1F
100
AcDbEntity
  8
1
100
AcDbLine
 10
425.9815196279686
 20
491.0636793311598
 30
0.0
 11
423.4815196274666
 21
491.0636793311598
 31
0.0
  0
LINE
  5
4EC
330
1F
100
AcDbEntity
  8
1
100
AcDbLine
 10
440.9815196279031
 20
509.5636793304304
 30
0.0
 11
425.9815196279649
 21
509.5636793304304
 31
0.0
  0
LINE
  5
4ED
330
1F
100
AcDbEntity
  8
1
100
AcDbLine
 10
425.9815196279649
 20
526.563679331891
 30
0.0
 11
440.9815196279031
 21
526.563679331891
 31
0.0
  0
LINE
  5
4EE
330
1F
100
AcDbEntity
  8
1
100
AcDbLine
 10
427.9815196259241
 20
526.563679331891
 30
0.0
 11
427.9815196259241
 21
509.5636793304304
 31
0.0
  0
LINE
  5
4EF
330
1F
100
AcDbEntity
  8
1
100
AcDbLine
 10
425.9815196279686
 20
491.0636793311598
 30
0.0
 11
425.9815196279649
 21
545.0636793311616
 31
0.0
  0
LINE
  5
4F0
330
1F
100
AcDbEntity
  8
1
100
AcDbLine
 10
423.4815196274666
 20
491.0636793311598
 30
0.0
 11
423.4815196274629
 21
545.0636793311616
 31
0.0
  0
LINE
  5
4F1
330
1F
100
AcDbEntity
  8
1
100
AcDbLine
 10
425.9815196279649
 20
545.0636793311616
 30
0.0
 11
423.4815196274629
 21
545.0636793311616
 31
0.0
  0
CIRCLE
  5
4F2
330
1F
100
AcDbEntity
  8
1
100
AcDbCircle
 10
440.9815196279031
 20
518.063679329892
 30
0.0
 40
4.000000001
  0
ARC
  5
4F3
330
1F
100
AcDbEntity
  8
1
100
AcDbCircle
 10
440.4658946279031
 20
518.063679329892
 30
0.0
 40
8.515624999461046
100
AcDbArc
 50
273.4714091780144
 51
86.5285908219856
  0
LINE
  5
4F4
330
1F
100
AcDbEntity
  8
1
100
AcDbLine
 10
468.981519627783
 20
515.0636793304122
 30
0.0
 11
468.981519627783
 21
521.063679331911
 31
0.0
  0
LINE
  5
4F5
330
1F
100
AcDbEntity
  8
1
100
AcDbLine
 10
446.5087308116761
 20
512.0636793309306
 30
0.0
 11
493.9815196271828
 21
512.0636793309306
 31
0.0
  0
LINE
  5
4F6
330
1F
100
AcDbEntity
  8
1
100
AcDbLine
 10
465.981519625764
 20
515.0636793304122
 30
0.0
 11
465.981519625764
 21
521.063679331911
 31
0.0
  0
LINE
  5
4F7
330
1F
100
AcDbEntity
  8
1
100
AcDbLine
 10
487.9815196271827
 20
515.0636793304104
 30
0.0
 11
468.981519627783
 21
515.0636793304122
 31
0.0
  0
LINE
  5
4F8
330
1F
100
AcDbEntity
  8
1
100
AcDbLine
 10
465.981519625764
 20
515.0636793304122
 30
0.0
 11
448.9815196273647
 21
515.0636793304122
 31
0.0
  0
LINE
  5
4F9
330
1F
100
AcDbEntity
  8
1
100
AcDbLine
 10
448.9815196273647
 20
521.063679331911
 30
0.0
 11
465.981519625764
 21
521.063679331911
 31
0.0
  0
LINE
  5
4FA
330
1F
100
AcDbEntity
  8
1
100
AcDbLine
 10
468.981519627783
 20
521.063679331911
 30
0.0
 11
487.9815196271827
 21
521.063679331911
 31
0.0
  0
LINE
  5
4FB
330
1F
100
AcDbEntity
  8
1
100
AcDbLine
 10
493.9815196271828
 20
524.0636793313909
 30
0.0
 11
446.508730809155
 21
524.0636793313909
 31
0.0
  0
LINE
  5
4FC
330
1F
100
AcDbEntity
  8
1
100
AcDbLine
 10
448.9815196273647
 20
515.0636793304122
 30
0.0
 11
448.9815196273647
 21
521.063679331911
 31
0.0
  0
LINE
  5
4FD
330
1F
100
AcDbEntity
  8
1
100
AcDbLine
 10
493.9815196271828
 20
512.0636793309306
 30
0.0
 11
493.9815196271828
 21
515.0636793304122
 31
0.0
  0
LINE
  5
4FE
330
1F
100
AcDbEntity
  8
1
100
AcDbLine
 10
493.9815196271828
 20
521.063679331911
 30
0.0
 11
493.9815196271828
 21
524.0636793313909
 31
0.0
  0
LINE
  5
4FF
330
1F
100
AcDbEntity
  8
1
100
AcDbLine
 10
493.9815196271828
 20
515.0636793304122
 30
0.0
 11
490.9815196271828
 21
517.0619606844495
 31
0.0
  0
LINE
  5
500
330
1F
100
AcDbEntity
  8
1
100
AcDbLine
 10
490.9815196271828
 20
517.0619606844495
 30
0.0
 11
490.9815196271828
 21
519.0653979778737
 31
0.0
  0
LINE
  5
501
330
1F
100
AcDbEntity
  8
1
100
AcDbLine
 10
493.9815196271828
 20
521.063679331911
 30
0.0
 11
490.9815196271828
 21
519.0653979778737
 31
0.0
  0
LINE
  5
502
330
1F
100
AcDbEntity
  8
1
100
AcDbLine
 10
487.9815196271827
 20
515.0636793304104
 30
0.0
 11
487.9815196271827
 21
521.063679331911
 31
0.0
  0
LINE
  5
503
330
1F
100
AcDbEntity
  8
1
100
AcDbLine
 10
450.9815196253819
 20
510.313679331369
 30
0.0
 11
450.9815196253819
 21
511.5136793318717
 31
0.0
  0
LINE
  5
504
330
1F
100
AcDbEntity
  8
1
100
AcDbLine
 10
450.9815196253819
 20
524.6136793304515
 30
0.0
 11
450.9815196253819
 21
525.8136793309525
 31
0.0
  0
LINE
  5
505
330
1F
100
AcDbEntity
  8
1
100
AcDbLine
 10
450.9815196253819
 20
525.8136793309542
 30
0.0
 11
510.9815196251819
 21
525.8136793309542
 31
0.0
  0
LINE
  5
506
330
1F
100
AcDbEntity
  8
1
100
AcDbLine
 10
450.9815196253819
 20
524.6136793304515
 30
0.0
 11
509.7815196246828
 21
524.6136793304515
 31
0.0
  0
LINE
  5
507
330
1F
100
AcDbEntity
  8
1
100
AcDbLine
 10
450.9815196253819
 20
511.5136793318717
 30
0.0
 11
509.7815196246828
 21
511.5136793318717
 31
0.0
  0
LINE
  5
508
330
1F
100
AcDbEntity
  8
1
100
AcDbLine
 10
510.9815196251819
 20
510.313679331369
 30
0.0
 11
450.9815196253819
 21
510.313679331369
 31
0.0
  0
LINE
  5
509
330
1F
100
AcDbEntity
  8
1
100
AcDbLine
 10
509.7815196246828
 20
524.6136793304515
 30
0.0
 11
509.7815196246828
 21
511.5136793318717
 31
0.0
  0
LINE
  5
50A
330
1F
100
AcDbEntity
  8
1
100
AcDbLine
 10
510.9815196251819
 20
525.8136793309542
 30
0.0
 11
510.9815196251819
 21
510.313679331369
 31
0.0
  0
LINE
  5
50B
330
1F
100
AcDbEntity
  8
1
100
AcDbLine
 10
510.9815196251819
 20
491.0636793311616
 30
0.0
 11
510.9815196251819
 21
545.0636793311616
 31
0.0
  0
LINE
  5
50C
330
1F
100
AcDbEntity
  8
1
100
AcDbLine
 10
512.9815196251819
 20
493.0636793311617
 30
0.0
 11
512.9815196251819
 21
543.0636793311617
 31
0.0
  0
LINE
  5
50D
330
1F
100
AcDbEntity
  8
1
100
AcDbLine
 10
510.9815196251819
 20
545.0636793311616
 30
0.0
 11
524.9815196251819
 21
545.0636793311616
 31
0.0
  0
LINE
  5
50E
330
1F
100
AcDbEntity
  8
1
100
AcDbLine
 10
512.9815196251819
 20
543.0636793311617
 30
0.0
 11
524.9815196251819
 21
543.0636793311617
 31
0.0
  0
LINE
  5
50F
330
1F
100
AcDbEntity
  8
1
100
AcDbLine
 10
510.9815196251819
 20
491.0636793311616
 30
0.0
 11
524.9815196251819
 21
491.0636793311616
 31
0.0
  0
LINE
  5
510
330
1F
100
AcDbEntity
  8
1
100
AcDbLine
 10
512.9815196251819
 20
493.0636793311617
 30
0.0
 11
524.9815196251819
 21
493.0636793311617
 31
0.0
  0
LINE
  5
511
330
1F
100
AcDbEntity
  8
1
100
AcDbLine
 10
524.9815196251819
 20
491.0636793311616
 30
0.0
 11
524.9815196251819
 21
493.0636793311617
 31
0.0
  0
LINE
  5
512
330
1F
100
AcDbEntity
  8
1
100
AcDbLine
 10
524.9815196251819
 20
543.0636793311617
 30
0.0
 11
524.9815196251819
 21
545.0636793311616
 31
0.0
  0
LINE
  5
513
330
1F
100
AcDbEntity
  8
1
100
AcDbLine
 10
444.9652364853116
 20
511.1636793298905
 30
0.0
 11
448.9489533427202
 21
518.063679329892
 31
0.0
  0
LINE
  5
514
330
1F
100
AcDbEntity
  8
1
100
AcDbLine
 10
444.9652364853116
 20
524.9636793298898
 30
0.0
 11
448.9489533427202
 21
518.063679329892
 31
0.0
  0
LINE
  5
515
330
1F
100
AcDbEntity
  8
1
100
AcDbLine
 10
436.9978027704945
 20
511.1636793298905
 30
0.0
 11
444.9652364853116
 21
511.1636793298905
 31
0.0
  0
LINE
  5
516
330
1F
100
AcDbEntity
  8
1
100
AcDbLine
 10
436.9978027704945
 20
524.9636793298898
 30
0.0
 11
444.9652364853116
 21
524.9636793298898
 31
0.0
  0
LINE
  5
517
330
1F
100
AcDbEntity
  8
1
100
AcDbLine
 10
436.9978027704945
 20
511.1636793298905
 30
0.0
 11
433.0140859130859
 21
518.063679329892
 31
0.0
  0
LINE
  5
518
330
1F
100
AcDbEntity
  8
1
100
AcDbLine
 10
436.9978027704945
 20
524.9636793298898
 30
0.0
 11
433.0140859130859
 21
518.063679329892
 31
0.0
  0
CIRCLE
  5
519
330
1F
100
AcDbEntity
  8
1
100
AcDbCircle
 10
440.9815196279031
 20
518.063679329892
 30
0.0
 40
8.0
  0
LINE
  5
51A
330
1F
100
AcDbEntity
  8
1
100
AcDbLine
 10
472.0815196251841
 20
508.813679331369
 30
0.0
 11
472.0815196251841
 21
502.813679331369
 31
0.0
  0
LINE
  5
51B
330
1F
100
AcDbEntity
  8
1
100
AcDbLine
 10
472.0815196251841
 20
502.813679331369
 30
0.0
 11
485.8815196251834
 21
502.813679331369
 31
0.0
  0
LINE
  5
51C
330
1F
100
AcDbEntity
  8
1
100
AcDbLine
 10
485.8815196251834
 20
508.813679331369
 30
0.0
 11
485.8815196251834
 21
502.813679331369
 31
0.0
  0
LINE
  5
51D
330
1F
100
AcDbEntity
  8
1
100
AcDbLine
 10
472.0815196251841
 20
508.813679331369
 30
0.0
 11
485.8815196251834
 21
508.813679331369
 31
0.0
  0
LINE
  5
51E
330
1F
100
AcDbEntity
  8
1
100
AcDbLine
 10
478.9815196251819
 20
508.813679331369
 30
0.0
 11
478.9815196251819
 21
502.813679331369
 31
0.0
  0
LINE
  5
51F
330
1F
100
AcDbEntity
  8
1
100
AcDbLine
 10
486.9815196251819
 20
510.313679331369
 30
0.0
 11
486.9815196251819
 21
508.813679331369
 31
0.0
  0
LINE
  5
520
330
1F
100
AcDbEntity
  8
1
100
AcDbLine
 10
486.9815196251819
 20
508.813679331369
 30
0.0
 11
470.9815196251819
 21
508.813679331369
 31
0.0
  0
LINE
  5
521
330
1F
100
AcDbEntity
  8
1
100
AcDbLine
 10
470.9815196251819
 20
508.813679331369
 30
0.0
 11
470.9815196251819
 21
510.313679331369
 31
0.0
  0
LINE
  5
522
330
1F
100
AcDbEntity
  8
1
100
AcDbLine
 10
470.9815196251819
 20
510.313679331369
 30
0.0
 11
486.9815196251819
 21
510.313679331369
 31
0.0
  0
ARC
  5
523
330
1F
100
AcDbEntity
  8
1
100
AcDbCircle
 10
478.9868335953632
 20
519.5712197263776
 30
0.0
 40
10.11267840800954
100
AcDbArc
 50
38.16732620271121
 51
141.9302212414186
  0
LINE
  5
524
330
1F
100
AcDbEntity
  8
1
100
AcDbLine
 10
486.9375166439184
 20
525.8204519708426
 30
0.0
 11
471.0255226064454
 21
525.8069066910622
 31
0.0
  0
LINE
  5
525
102
{ACAD_REACTORS
330
5E2
102
}
330
1F
100
AcDbEntity
  8
1
100
AcDbLine
 10
689.1402550679503
 20
397.1369976162616
 30
0.0
 11
689.1402550679503
 21
197.1369976142025
 31
0.0
  0
LINE
  5
526
330
1F
100
AcDbEntity
  8
1
100
AcDbLine
 10
689.1402550679503
 20
397.1369976162616
 30
0.0
 11
686.6402550674482
 21
397.1369976162616
 31
0.0
  0
LINE
  5
527
330
1F
100
AcDbEntity
  8
1
100
AcDbLine
 10
712.14025506735
 20
349.6369976142625
 30
0.0
 11
691.1402550659094
 21
349.6369976142625
 31
0.0
  0
LINE
  5
528
330
1F
100
AcDbEntity
  8
1
100
AcDbLine
 10
712.14025506735
 20
347.1369976163016
 30
0.0
 11
691.1402550659094
 21
347.1369976163016
 31
0.0
  0
LINE
  5
529
330
1F
100
AcDbEntity
  8
1
100
AcDbLine
 10
712.14025506735
 20
244.6369976162034
 30
0.0
 11
712.14025506735
 21
247.1369976141625
 31
0.0
  0
LINE
  5
52A
330
1F
100
AcDbEntity
  8
1
100
AcDbLine
 10
712.14025506735
 20
347.1369976163016
 30
0.0
 11
712.14025506735
 21
349.6369976142625
 31
0.0
  0
LINE
  5
52B
330
1F
100
AcDbEntity
  8
1
100
AcDbLine
 10
704.1402550679503
 20
347.1369976163016
 30
0.0
 11
704.1402550679503
 21
349.6369976142625
 31
0.0
  0
LINE
  5
52C
102
{ACAD_REACTORS
330
5E5
102
}
330
1F
100
AcDbEntity
  8
1
100
AcDbLine
 10
686.6402550674482
 20
397.1369976162616
 30
0.0
 11
686.6402550674482
 21
197.1369976142025
 31
0.0
  0
LINE
  5
52D
330
1F
100
AcDbEntity
  8
1
100
AcDbLine
 10
691.1402550659094
 20
247.1369976141625
 30
0.0
 11
712.14025506735
 21
247.1369976141625
 31
0.0
  0
LINE
  5
52E
330
1F
100
AcDbEntity
  8
1
100
AcDbLine
 10
712.14025506735
 20
244.6369976162034
 30
0.0
 11
691.1402550659094
 21
244.6369976162034
 31
0.0
  0
LINE
  5
52F
330
1F
100
AcDbEntity
  8
1
100
AcDbLine
 10
689.1402550679503
 20
197.1369976142025
 30
0.0
 11
686.6402550674482
 21
197.1369976142025
 31
0.0
  0
ARC
  5
530
330
1F
100
AcDbEntity
  8
1
100
AcDbCircle
 10
691.1402550659094
 20
243.1369976157014
 30
0.0
 40
4.000000001
100
AcDbArc
 50
90.0
 51
120.2074892604725
  0
ARC
  5
531
330
1F
100
AcDbEntity
  8
1
100
AcDbCircle
 10
691.1402550659094
 20
242.6369976157014
 30
0.0
 40
2.0000000005
100
AcDbArc
 50
90.0
 51
180.0
  0
ARC
  5
532
330
1F
100
AcDbEntity
  8
1
100
AcDbCircle
 10
691.1402550659094
 20
351.1369976147628
 30
0.0
 40
4.000000001
100
AcDbArc
 50
239.7925107395274
 51
270.0
  0
ARC
  5
533
330
1F
100
AcDbEntity
  8
1
100
AcDbCircle
 10
691.1402550659094
 20
351.6369976147628
 30
0.0
 40
2.0000000005
100
AcDbArc
 50
180.0
 51
270.0
  0
LINE
  5
534
330
1F
100
AcDbEntity
  8
1
100
AcDbLine
 10
696.3012550678012
 20
347.1369976163016
 30
0.0
 11
696.1402550672191
 21
346.9759976157213
 31
0.0
  0
LINE
  5
535
330
1F
100
AcDbEntity
  8
1
100
AcDbLine
 10
696.1402550672191
 20
247.1369976141625
 30
0.0
 11
741.090391110987
 21
247.1369976141625
 31
0.0
  0
LINE
  5
536
330
1F
100
AcDbEntity
  8
1
100
AcDbLine
 10
696.1402550672191
 20
247.1369976141625
 30
0.0
 11
696.1402550672191
 21
347.1369976163016
 31
0.0
  0
LINE
  5
537
330
1F
100
AcDbEntity
  8
1
100
AcDbLine
 10
708.1402550676811
 20
347.1369976163016
 30
0.0
 11
700.1402550682195
 21
347.1369976163016
 31
0.0
  0
LINE
  5
538
330
1F
100
AcDbEntity
  8
1
100
AcDbLine
 10
788.9351427963355
 20
340.2433381949061
 30
0.0
 11
729.8466776158001
 21
350.6622288548872
 31
0.0
  0
LINE
  5
539
330
1F
100
AcDbEntity
  8
1
100
AcDbLine
 10
788.9351427963355
 20
340.2433381949061
 30
0.0
 11
771.57032502971
 21
241.762562894078
 31
0.0
  0
LINE
  5
53A
330
1F
100
AcDbEntity
  8
1
100
AcDbLine
 10
729.8466776158001
 20
350.6622288548872
 30
0.0
 11
712.4818598491782
 21
252.1814535540591
 31
0.0
  0
LINE
  5
53B
330
1F
100
AcDbEntity
  8
1
100
AcDbLine
 10
771.57032502971
 20
241.762562894078
 30
0.0
 11
712.4818598491782
 21
252.1814535540591
 31
0.0
  0
LINE
  5
53C
330
1F
100
AcDbEntity
  8
1
100
AcDbLine
 10
776.8167230229972
 20
218.2460677612519
 30
0.0
 11
773.3693248090438
 21
218.85393707962
 31
0.0
  0
LINE
  5
53D
330
1F
100
AcDbEntity
  8
1
100
AcDbLine
 10
777.5981398224993
 20
222.6777026498069
 30
0.0
 11
774.1507416085422
 21
223.285571968175
 31
0.0
  0
ARC
  5
53E
330
1F
100
AcDbEntity
  8
1
100
AcDbCircle
 10
773.7600332087912
 20
221.0697545238975
 30
0.0
 40
2.249999999999999
100
AcDbArc
 50
79.99999999994028
 51
259.9999999999403
  0
ARC
  5
53F
330
1F
100
AcDbEntity
  8
1
100
AcDbCircle
 10
777.2074314227519
 20
220.4618852055294
 30
0.0
 40
2.249999999999999
100
AcDbArc
 50
259.9999999999403
 51
79.99999999994028
  0
ARC
  5
540
330
1F
100
AcDbEntity
  8
1
100
AcDbCircle
 10
801.517550912429
 20
358.331423900084
 30
0.0
 40
2.249999999999999
100
AcDbArc
 50
259.9999999999403
 51
79.99999999994028
  0
ARC
  5
541
330
1F
100
AcDbEntity
  8
1
100
AcDbCircle
 10
798.070152698472
 20
358.9392932184503
 30
0.0
 40
2.249999999999999
100
AcDbArc
 50
79.99999999994028
 51
259.9999999999403
  0
LINE
  5
542
330
1F
100
AcDbEntity
  8
1
100
AcDbLine
 10
801.1268425126781
 20
356.1156064558065
 30
0.0
 11
797.679444298721
 21
356.7234757741728
 31
0.0
  0
LINE
  5
543
330
1F
100
AcDbEntity
  8
1
100
AcDbLine
 10
801.9082593121801
 20
360.5472413443615
 30
0.0
 11
798.460861098223
 21
361.1551106627278
 31
0.0
  0
LINE
  5
544
102
{ACAD_REACTORS
330
5E2
102
}
330
1F
100
AcDbEntity
  8
1
100
AcDbLine
 10
797.6175516797137
 20
389.4837258457167
 30
0.0
 11
762.8879161463281
 21
192.5221752432674
 31
0.0
  0
LINE
  5
545
330
1F
100
AcDbEntity
  8
1
100
AcDbLine
 10
811.4048602218844
 20
387.0526513583766
 30
0.0
 11
776.6752246884988
 21
190.0911007559309
 31
0.0
  0
LINE
  5
546
102
{ACAD_REACTORS
330
5E5
102
}
330
1F
100
AcDbEntity
  8
1
100
AcDbLine
 10
811.4048602218844
 20
387.0526513583766
 30
0.0
 11
797.6175516797137
 21
389.483725845713
 31
0.0
  0
LINE
  5
547
330
1F
100
AcDbEntity
  8
1
100
AcDbLine
 10
776.6752246885024
 20
190.0911007559309
 30
0.0
 11
762.8879161463281
 21
192.5221752432674
 31
0.0
  0
LINE
  5
548
330
1F
100
AcDbEntity
  8
1
100
AcDbLine
 10
735.2402550660207
 20
339.12071447325
 30
0.0
 11
742.1402550660221
 21
343.1044313306586
 31
0.0
  0
LINE
  5
549
330
1F
100
AcDbEntity
  8
1
100
AcDbLine
 10
749.0402550660199
 20
339.12071447325
 30
0.0
 11
742.1402550660221
 21
343.1044313306586
 31
0.0
  0
LINE
  5
54A
330
1F
100
AcDbEntity
  8
1
100
AcDbLine
 10
735.2402550660207
 20
331.1532807584347
 30
0.0
 11
735.2402550660207
 21
339.12071447325
 31
0.0
  0
LINE
  5
54B
330
1F
100
AcDbEntity
  8
1
100
AcDbLine
 10
749.0402550660199
 20
331.1532807584347
 30
0.0
 11
749.0402550660199
 21
339.12071447325
 31
0.0
  0
LINE
  5
54C
330
1F
100
AcDbEntity
  8
1
100
AcDbLine
 10
735.2402550660207
 20
331.1532807584328
 30
0.0
 11
742.1402550660221
 21
327.1695639010261
 31
0.0
  0
LINE
  5
54D
330
1F
100
AcDbEntity
  8
1
100
AcDbLine
 10
749.0402550660199
 20
331.1532807584328
 30
0.0
 11
742.1402550660221
 21
327.1695639010261
 31
0.0
  0
CIRCLE
  5
54E
330
1F
100
AcDbEntity
  8
1
100
AcDbCircle
 10
742.1402550660221
 20
335.1369976158415
 30
0.0
 40
4.0
  0
LINE
  5
54F
330
1F
100
AcDbEntity
  8
1
100
AcDbLine
 10
735.2402550660207
 20
263.1207144720295
 30
0.0
 11
742.1402550660221
 21
267.104431329438
 31
0.0
  0
LINE
  5
550
330
1F
100
AcDbEntity
  8
1
100
AcDbLine
 10
749.0402550660199
 20
263.1207144720295
 30
0.0
 11
742.1402550660221
 21
267.104431329438
 31
0.0
  0
LINE
  5
551
330
1F
100
AcDbEntity
  8
1
100
AcDbLine
 10
735.2402550660207
 20
255.1532807572141
 30
0.0
 11
735.2402550660207
 21
263.1207144720295
 31
0.0
  0
LINE
  5
552
330
1F
100
AcDbEntity
  8
1
100
AcDbLine
 10
749.0402550660199
 20
255.1532807572141
 30
0.0
 11
749.0402550660199
 21
263.1207144720295
 31
0.0
  0
LINE
  5
553
330
1F
100
AcDbEntity
  8
1
100
AcDbLine
 10
735.2402550660207
 20
255.1532807572141
 30
0.0
 11
742.1402550660221
 21
251.1695638998055
 31
0.0
  0
LINE
  5
554
330
1F
100
AcDbEntity
  8
1
100
AcDbLine
 10
749.0402550660199
 20
255.1532807572141
 30
0.0
 11
742.1402550660221
 21
251.1695638998055
 31
0.0
  0
CIRCLE
  5
555
330
1F
100
AcDbEntity
  8
1
100
AcDbCircle
 10
742.1402550660221
 20
259.1369976146209
 30
0.0
 40
4.0
  0
CIRCLE
  5
556
330
1F
100
AcDbEntity
  8
1
100
AcDbCircle
 10
742.1402550660221
 20
335.1369976158415
 30
0.0
 40
8.0
  0
CIRCLE
  5
557
330
1F
100
AcDbEntity
  8
1
100
AcDbCircle
 10
742.1402550660221
 20
259.1369976146209
 30
0.0
 40
8.0
  0
LINE
  5
558
330
1F
100
AcDbEntity
  8
1
100
AcDbLine
 10
711.0402550679517
 20
243.1369976162034
 30
0.0
 11
711.0402550679517
 21
237.1369976162034
 31
0.0
  0
LINE
  5
559
330
1F
100
AcDbEntity
  8
1
100
AcDbLine
 10
711.0402550679517
 20
237.1369976162034
 30
0.0
 11
697.2402550679488
 21
237.1369976162034
 31
0.0
  0
LINE
  5
55A
330
1F
100
AcDbEntity
  8
1
100
AcDbLine
 10
697.2402550679488
 20
243.1369976162034
 30
0.0
 11
697.2402550679488
 21
237.1369976162034
 31
0.0
  0
LINE
  5
55B
330
1F
100
AcDbEntity
  8
1
100
AcDbLine
 10
711.0402550679517
 20
243.1369976162034
 30
0.0
 11
697.2402550679488
 21
243.1369976162034
 31
0.0
  0
LINE
  5
55C
330
1F
100
AcDbEntity
  8
1
100
AcDbLine
 10
704.1402550679503
 20
243.1369976162034
 30
0.0
 11
704.1402550679503
 21
237.1369976162034
 31
0.0
  0
LINE
  5
55D
330
1F
100
AcDbEntity
  8
1
100
AcDbLine
 10
696.1402550679503
 20
244.6369976162034
 30
0.0
 11
696.1402550679503
 21
243.1369976162034
 31
0.0
  0
LINE
  5
55E
330
1F
100
AcDbEntity
  8
1
100
AcDbLine
 10
696.1402550679503
 20
243.1369976162034
 30
0.0
 11
712.1402550679503
 21
243.1369976162034
 31
0.0
  0
LINE
  5
55F
330
1F
100
AcDbEntity
  8
1
100
AcDbLine
 10
712.1402550679503
 20
243.1369976162034
 30
0.0
 11
712.1402550679503
 21
244.6369976162034
 31
0.0
  0
LINE
  5
560
330
1F
100
AcDbEntity
  8
1
100
AcDbLine
 10
712.1402550679503
 20
244.6369976162034
 30
0.0
 11
696.1402550679503
 21
244.6369976162034
 31
0.0
  0
LINE
  5
561
330
1F
100
AcDbEntity
  8
1
100
AcDbLine
 10
711.0402550679517
 20
351.1369976142607
 30
0.0
 11
711.0402550679517
 21
357.1369976142607
 31
0.0
  0
LINE
  5
562
330
1F
100
AcDbEntity
  8
1
100
AcDbLine
 10
711.0402550679517
 20
357.1369976142607
 30
0.0
 11
697.2402550679488
 21
357.1369976142607
 31
0.0
  0
LINE
  5
563
330
1F
100
AcDbEntity
  8
1
100
AcDbLine
 10
697.2402550679488
 20
351.1369976142607
 30
0.0
 11
697.2402550679488
 21
357.1369976142607
 31
0.0
  0
LINE
  5
564
330
1F
100
AcDbEntity
  8
1
100
AcDbLine
 10
711.0402550679517
 20
351.1369976142607
 30
0.0
 11
697.2402550679488
 21
351.1369976142607
 31
0.0
  0
LINE
  5
565
330
1F
100
AcDbEntity
  8
1
100
AcDbLine
 10
704.1402550679503
 20
351.1369976142607
 30
0.0
 11
704.1402550679503
 21
357.1369976142607
 31
0.0
  0
LINE
  5
566
330
1F
100
AcDbEntity
  8
1
100
AcDbLine
 10
696.1402550679503
 20
349.6369976142607
 30
0.0
 11
696.1402550679503
 21
351.1369976142607
 31
0.0
  0
LINE
  5
567
330
1F
100
AcDbEntity
  8
1
100
AcDbLine
 10
696.1402550679503
 20
351.1369976142607
 30
0.0
 11
712.1402550679503
 21
351.1369976142607
 31
0.0
  0
LINE
  5
568
330
1F
100
AcDbEntity
  8
1
100
AcDbLine
 10
712.1402550679503
 20
351.1369976142607
 30
0.0
 11
712.1402550679503
 21
349.6369976142607
 31
0.0
  0
LINE
  5
569
330
1F
100
AcDbEntity
  8
1
100
AcDbLine
 10
712.1402550679503
 20
349.6369976142607
 30
0.0
 11
696.1402550679503
 21
349.6369976142607
 31
0.0
  0
LINE
  5
56A
330
1F
100
AcDbEntity
  8
1
100
AcDbLine
 10
758.5195632772391
 20
328.9935885598072
 30
0.0
 11
759.9974308482541
 21
337.3749920471066
 31
0.0
  0
ARC
  5
56B
330
1F
100
AcDbEntity
  8
1
100
AcDbCircle
 10
742.1402550645487
 20
259.1369976135932
 30
0.0
 40
80.24999999967997
100
AcDbArc
 50
77.14295173475285
 51
85.02591292182165
  0
ARC
  5
56C
330
1F
100
AcDbEntity
  8
1
100
AcDbCircle
 10
742.1402550645487
 20
259.1369976135932
 30
0.0
 40
71.75113264717999
100
AcDbArc
 50
76.80420381149426
 51
84.73881925540977
  0
LINE
  5
56D
330
1F
100
AcDbEntity
  8
1
100
AcDbLine
 10
757.1402550659603
 20
347.1369976163016
 30
0.0
 11
757.1402550659603
 21
345.8496347503672
 31
0.0
  0
LINE
  5
56E
330
1F
100
AcDbEntity
  8
0
  6
Continuous
370
    -3
100
AcDbLine
 10
864.3343855149632
 20
43.9974659694501
 30
0.0
 11
864.3343855149632
 21
635.2777683117048
 31
0.0
  0
LINE
  5
56F
330
1F
100
AcDbEntity
  8
0
  6
Continuous
370
    -3
100
AcDbLine
 10
28.18042260672689
 20
635.2777683117048
 30
0.0
 11
28.18042260672689
 21
43.9974659694501
 31
0.0
  0
LINE
  5
570
330
1F
100
AcDbEntity
  8
0
  6
Continuous
370
    -3
100
AcDbLine
 10
864.3343855149632
 20
635.2777683117048
 30
0.0
 11
28.18042260672689
 21
635.2777683117048
 31
0.0
  0
LINE
  5
571
330
1F
100
AcDbEntity
  8
0
  6
Continuous
370
    -3
100
AcDbLine
 10
28.18042260672689
 20
43.9974659694501
 30
0.0
 11
864.3343855149632
 21
43.9974659694501
 31
0.0
  0
LINE
  5
572
330
1F
100
AcDbEntity
  8
0
370
    -3
100
AcDbLine
 10
28.18042260672689
 20
103.2839383314378
 30
0.0
 11
864.3343855149632
 21
103.2839383314378
 31
0.0
  0
LINE
  5
573
330
1F
100
AcDbEntity
  8
0
370
    15
100
AcDbLine
 10
653.2473175784633
 20
103.2839383314378
 30
0.0
 11
653.2473175784633
 21
60.6400862230505
 31
0.0
  0
LINE
  5
574
330
1F
100
AcDbEntity
  8
0
370
    -3
100
AcDbLine
 10
346.2704116618642
 20
103.2839383314378
 30
0.0
 11
346.2704116618642
 21
60.6400862230505
 31
0.0
  0
LINE
  5
575
330
1F
100
AcDbEntity
  8
0
370
    15
100
AcDbLine
 10
653.2473175784633
 20
103.2839383314378
 30
0.0
 11
653.2473175784633
 21
81.962012277246
 31
0.0
  0
LINE
  5
576
330
1F
100
AcDbEntity
  8
0
370
    15
100
AcDbLine
 10
653.2473175784633
 20
81.962012277246
 30
0.0
 11
555.8771885976547
 21
81.962012277246
 31
0.0
  0
LINE
  5
577
330
1F
100
AcDbEntity
  8
0
370
    -3
100
AcDbLine
 10
555.8771885976547
 20
103.2839383314378
 30
0.0
 11
555.8771885976547
 21
60.6400862230505
 31
0.0
  0
MTEXT
  5
578
330
1F
100
AcDbEntity
  8
0
370
    15
100
AcDbMText
 10
561.954919069978
 20
102.1536895046768
 30
0.0
 40
5.685846947784553
 41
38.29775538691155
 71
     1
 72
     5
  1
図面番号
  7
\U+6837式 1
 73
     1
 44
1.0
1001
ACAD
1000
MTEXTBEGIN
1070
    73
1070
     1
1070
    44
1040
1.0
1070
    74
1070
     0
1000
MTEXTEND
  0
MTEXT
  5
579
330
1F
100
AcDbEntity
  8
0
370
    15
100
AcDbMText
 10
561.954919069978
 20
80.83176345048128
 30
0.0
 40
5.685846947784553
 41
20.19920841335472
 71
     1
 72
     5
  1
尺度
  7
\U+6837式 1
 73
     1
 44
1.0
1001
ACAD
1000
MTEXTBEGIN
1070
    73
1070
     1
1070
    44
1040
1.0
1070
    74
1070
     0
1000
MTEXTEND
  0
MTEXT
  5
57A
330
1F
100
AcDbEntity
  8
0
370
    15
100
AcDbMText
 10
659.3250480507866
 20
102.1536895046768
 30
0.0
 40
5.685846947784553
 41
38.29775538691155
 71
     1
 72
     5
  1
図名
  7
\U+6837式 1
 73
     1
 44
1.0
1001
ACAD
1000
MTEXTBEGIN
1070
    73
1070
     1
1070
    44
1040
1.0
1070
    74
1070
     0
1000
MTEXTEND
  0
LINE
  5
57B
330
1F
100
AcDbEntity
  8
0
370
    15
100
AcDbLine
 10
28.18042260672689
 20
92.62297530434194
 30
0.0
 11
346.2704116618642
 21
92.62297530434194
 31
0.0
  0
LINE
  5
57C
330
1F
100
AcDbEntity
  8
0
370
    15
100
AcDbLine
 10
346.2704116618642
 20
81.962012277246
 30
0.0
 11
28.18042260672689
 21
81.962012277246
 31
0.0
  0
LINE
  5
57D
330
1F
100
AcDbEntity
  8
0
370
    15
100
AcDbLine
 10
28.18042260672689
 20
71.30104925015007
 30
0.0
 11
346.2704116618642
 21
71.30104925015007
 31
0.0
  0
LINE
  5
57E
330
1F
100
AcDbEntity
  8
0
370
    -3
100
AcDbLine
 10
28.18042260672689
 20
60.6400862230505
 30
0.0
 11
864.3343855149632
 21
60.6400862230505
 31
0.0
  0
MTEXT
  5
57F
330
1F
100
AcDbEntity
  8
0
370
    15
100
AcDbMText
 10
605.7312366838795
 20
95.28390853522182
 30
0.0
 40
5.685846947784553
 41
131.5889960163156
 71
     1
 72
     5
  1
2014 Ver,1
  7
\U+6837式 1
 73
     1
 44
1.0
1001
ACAD
1000
MTEXTBEGIN
1070
    73
1070
     1
1070
    44
1040
1.0
1070
    74
1070
     0
1000
MTEXTEND
  0
MTEXT
  5
580
330
1F
100
AcDbEntity
  8
0
370
    15
100
AcDbMText
 10
685.6815501455074
 20
93.20594370181357
 30
0.0
 40
7.932495652262668
 41
234.8227265310135
 71
     1
 72
     5
  1
SOUND POLE Series\P壁面設置金具　　SP-WSM
  7
\U+6837式 1
 73
     1
 44
1.0
1001
ACAD
1000
MTEXTBEGIN
1070
    73
1070
     1
1070
    44
1040
1.0
1070
    74
1070
     0
1000
MTEXTEND
  0
MTEXT
  5
581
330
1F
100
AcDbEntity
  8
0
370
    15
100
AcDbMText
 10
615.913206628791
 20
71.46270528932041
 30
0.0
 40
5.685846947784553
 41
41.33695474229851
 71
     1
 72
     5
  1
単位：mm
  7
\U+6837式 1
 73
     1
 44
1.0
1001
ACAD
1000
MTEXTBEGIN
1070
    73
1070
     1
1070
    44
1040
1.0
1070
    74
1070
     0
1000
MTEXTEND
  0
MTEXT
  5
582
330
1F
100
AcDbEntity
  8
0
370
    13
100
AcDbMText
 10
48.93751493705884
 20
566.589207907856
 30
0.0
 40
7.091770738115643
 41
271.0936701678099
 71
     1
 72
     5
  1
材質
  7
\U+6837式 1
 73
     1
 44
1.0
1001
ACAD
1000
MTEXTBEGIN
1070
    73
1070
     1
1070
    44
1040
1.0
1070
    74
1070
     0
1000
MTEXTEND
  0
MTEXT
  5
583
330
1F
100
AcDbEntity
  8
0
370
    13
100
AcDbMText
 10
153.7272076260068
 20
567.2742084905159
 30
0.0
 40
7.091770738115643
 41
271.0936701678099
 71
     1
 72
     5
  1
：　SPCC、アルミ
  7
\U+6837式 1
 73
     1
 44
1.0
1001
ACAD
1000
MTEXTBEGIN
1070
    73
1070
     1
1070
    44
1040
1.0
1070
    74
1070
     0
1000
MTEXTEND
  0
MTEXT
  5
584
330
1F
100
AcDbEntity
  8
0
370
    13
100
AcDbMText
 10
48.93751493705884
 20
550.6747203163351
 30
0.0
 40
7.091770738115643
 41
271.0936701678099
 71
     1
 72
     5
  1
カラー
  7
\U+6837式 1
 73
     1
 44
1.0
1001
ACAD
1000
MTEXTBEGIN
1070
    73
1070
     1
1070
    44
1040
1.0
1070
    74
1070
     0
1000
MTEXTEND
  0
MTEXT
  5
585
330
1F
100
AcDbEntity
  8
0
370
    13
100
AcDbMText
 10
48.93751493705884
 20
534.7602327247998
 30
0.0
 40
7.091770738115643
 41
271.0936701678099
 71
     1
 72
     5
  1
重量
  7
\U+6837式 1
 73
     1
 44
1.0
1001
ACAD
1000
MTEXTBEGIN
1070
    73
1070
     1
1070
    44
1040
1.0
1070
    74
1070
     0
1000
MTEXTEND
  0
MTEXT
  5
586
330
1F
100
AcDbEntity
  8
0
370
    13
100
AcDbMText
 10
153.7272076260068
 20
550.1106021894385
 30
0.0
 40
7.091770738115643
 41
271.0936701678099
 71
     1
 72
     5
  1
：　ブラック／ホワイト　焼付塗装
  7
\U+6837式 1
 73
     1
 44
1.0
1001
ACAD
1000
MTEXTBEGIN
1070
    73
1070
     1
1070
    44
1040
1.0
1070
    74
1070
     0
1000
MTEXTEND
  0
MTEXT
  5
587
330
1F
100
AcDbEntity
  8
0
370
    13
100
AcDbMText
 10
153.7272076260068
 20
534.2364087498237
 30
0.0
 40
7.091770738115643
 41
271.0936701678099
 71
     1
 72
     5
  1
：　約1kg
  7
\U+6837式 1
 73
     1
 44
1.0
1001
ACAD
1000
MTEXTBEGIN
1070
    73
1070
     1
1070
    44
1040
1.0
1070
    74
1070
     0
1000
MTEXTEND
  0
LINE
  5
588
330
1F
100
AcDbEntity
  8
0
370
    -3
100
AcDbLine
 10
41.37740853843013
 20
585.2889976609142
 30
0.0
 11
340.8115733968606
 21
585.2889976609142
 31
0.0
  0
LINE
  5
589
330
1F
100
AcDbEntity
  8
0
370
    -3
100
AcDbLine
 10
41.37740853843013
 20
579.8300322984935
 30
0.0
 11
340.8115733968606
 21
579.8300322984953
 31
0.0
  0
MTEXT
  5
58A
330
1F
100
AcDbEntity
  8
0
370
    13
100
AcDbMText
 10
48.93751493705884
 20
621.1397589918608
 30
0.0
 40
11.60945147134295
 41
343.6702858138506
 71
     1
 72
     5
  1
{\H0.7752x;SOUND POLE Series\P}壁面設置金具　SP-WSM
  7
\U+6837式 1
 73
     1
 44
1.0
1001
ACAD
1000
MTEXTBEGIN
1070
    73
1070
     1
1070
    44
1040
1.0
1070
    74
1070
     0
1000
MTEXTEND
  0
MTEXT
  5
58B
330
1F
100
AcDbEntity
  8
0
370
    13
100
AcDbMText
 10
48.93751493705884
 20
519.3695691082496
 30
0.0
 40
7.091770738115643
 41
271.0936701678099
 71
     1
 72
     5
  1
振り角度
  7
\U+6837式 1
 73
     1
 44
1.0
1001
ACAD
1000
MTEXTBEGIN
1070
    73
1070
     1
1070
    44
1040
1.0
1070
    74
1070
     0
1000
MTEXTEND
  0
MTEXT
  5
58C
330
1F
100
AcDbEntity
  8
0
370
    13
100
AcDbMText
 10
153.7272076260068
 20
518.8457451332717
 30
0.0
 40
7.091770738115643
 41
271.0936701678099
 71
     1
 72
     5
  1
：　水平＝最大左右73度
  7
\U+6837式 1
 73
     1
 44
1.0
1001
ACAD
1000
MTEXTBEGIN
1070
    73
1070
     1
1070
    44
1040
1.0
1070
    74
1070
     0
1000
MTEXTEND
  0
MTEXT
  5
58D
330
1F
100
AcDbEntity
  8
0
370
    13
100
AcDbMText
 10
634.5843073687227
 20
123.9086004868215
 30
0.0
 40
7.263524560679382
 41
277.6592199921866
 71
     1
 72
     5
  1
※この仕様は予告無く変更される場合があります。
  7
\U+6837式 1
 73
     1
 44
1.0
1001
ACAD
1000
MTEXTBEGIN
1070
    73
1070
     1
1070
    44
1040
1.0
1070
    74
1070
     0
1000
MTEXTEND
  0
DIMENSION
  5
58E
102
{ACAD_XDICTIONARY
360
58F
102
}
102
{ACAD_REACTORS
330
590
102
}
330
1F
100
AcDbEntity
  8
1
370
     9
100
AcDbDimension
  2
*D48
 10
579.4902733437428
 20
367.1351968946649
 30
0.0
 11
587.4902733437427
 21
382.1360972549485
 31
0.0
 70
    32
 71
     5
 42
30.00180072056719
  3
sunopo　2
100
AcDbAlignedDimension
 13
524.9815196251819
 23
397.1369976152321
 33
0.0
 14
518.4815196251819
 24
367.1351968946649
 34
0.0
 50
90.0
100
AcDbRotatedDimension
1001
ACAD
1000
DSTYLE
1002
{
1070
   340
1005
11
1002
}
  0
DIMENSION
  5
591
330
1F
100
AcDbEntity
  8
1
370
     9
100
AcDbDimension
  2
*D33
 10
579.4902733437428
 20
227.138798335801
 30
0.0
 11
587.4902733437428
 21
297.1369976152331
 31
0.0
 70
    32
 71
     5
 42
139.9963985588638
  3
sunopo　2
100
AcDbAlignedDimension
 13
518.4815196251819
 23
367.1351968946649
 33
0.0
 14
518.4815196251819
 24
227.1387983358011
 34
0.0
 50
90.0
100
AcDbRotatedDimension
1001
ACAD
1000
DSTYLE
1002
{
1070
   340
1005
11
1002
}
  0
DIMENSION
  5
592
330
1F
100
AcDbEntity
  8
1
370
     9
100
AcDbDimension
  2
*D34
 10
518.4815196251819
 20
412.1552648832524
 30
0.0
 11
559.9815196251819
 21
412.1552648832524
 31
0.0
 70
   160
 71
     5
 42
6.5
  3
sunopo　2
100
AcDbAlignedDimension
 13
524.9815196251819
 23
397.1369976152321
 33
0.0
 14
518.4815196251819
 24
367.1351968946649
 34
0.0
100
AcDbRotatedDimension
1001
ACAD
1000
DSTYLE
1002
{
1070
   340
1005
11
1002
}
  0
DIMENSION
  5
593
330
1F
100
AcDbEntity
  8
1
370
     9
100
AcDbDimension
  2
*D35
 10
510.9815196251819
 20
180.2122597218924
 30
0.0
 11
468.4815196265734
 21
172.2122597218924
 31
0.0
 70
    32
 71
     5
 42
84.99999999721694
  3
sunopo　2
100
AcDbAlignedDimension
 13
425.9815196279649
 23
197.1369976142025
 33
0.0
 14
510.9815196251819
 24
197.1369976152284
 34
0.0
100
AcDbRotatedDimension
1001
ACAD
1000
DSTYLE
1002
{
1070
   340
1005
11
1002
}
  0
DIMENSION
  5
594
330
1F
100
AcDbEntity
  8
1
370
     9
100
AcDbDimension
  2
*D36
 10
524.9815196251819
 20
180.2122597218906
 30
0.0
 11
517.9815196251819
 21
180.2122597218906
 31
0.0
 70
   160
 71
     5
 42
14.0
  3
sunopo　2
100
AcDbAlignedDimension
 13
510.9815196251819
 23
197.1369976152284
 33
0.0
 14
524.9815196251819
 24
197.1369976152284
 34
0.0
100
AcDbRotatedDimension
1001
ACAD
1000
DSTYLE
1002
{
1070
   340
1005
11
1002
}
  0
DIMENSION
  5
595
330
1F
100
AcDbEntity
  8
1
370
     9
100
AcDbDimension
  2
*D37
 10
423.4815196274629
 20
180.2122597218915
 30
0.0
 11
424.7315196277139
 21
180.2122597218915
 31
0.0
 70
   160
 71
     5
 42
2.500000000502041
  3
sunopo　2
100
AcDbAlignedDimension
 13
425.9815196279649
 23
197.1369976142025
 33
0.0
 14
423.4815196274629
 24
197.1369976142025
 34
0.0
100
AcDbRotatedDimension
1001
ACAD
1000
DSTYLE
1002
{
1070
   340
1005
11
1002
}
  0
DIMENSION
  5
596
330
1F
100
AcDbEntity
  8
1
370
     9
100
AcDbDimension
  2
*D38
 10
524.9815196251819
 20
153.7348744725543
 30
0.0
 11
474.2315196263224
 21
145.7348744725543
 31
0.0
 70
    32
 71
     5
 42
101.499999997719
  3
sunopo　2
100
AcDbAlignedDimension
 13
423.4815196274629
 23
179.2122597218924
 33
0.0
 14
524.9815196251819
 24
179.2122597218906
 34
0.0
100
AcDbRotatedDimension
1001
ACAD
1000
DSTYLE
1002
{
1070
   340
1005
11
1002
}
  0
DIMENSION
  5
597
330
1F
100
AcDbEntity
  8
1
370
     9
100
AcDbDimension
  2
*D39
 10
605.273377592124
 20
197.1369976152284
 30
0.0
 11
613.2733775921241
 21
297.1369976152303
 31
0.0
 70
    32
 71
     5
 42
200.0000000000036
  3
sunopo　2
100
AcDbAlignedDimension
 13
547.7071690953579
 23
397.1369976152321
 33
0.0
 14
547.7071690953579
 24
197.1369976152284
 34
0.0
 50
90.0
100
AcDbRotatedDimension
1001
ACAD
1000
DSTYLE
1002
{
1070
   340
1005
11
1002
}
  0
CIRCLE
  5
598
330
1F
100
AcDbEntity
  8
1
100
AcDbCircle
 10
298.7705727968622
 20
337.1369976163034
 30
0.0
 40
3.376687499999999
  0
LINE
  5
599
330
1F
100
AcDbEntity
  8
1
100
AcDbLine
 10
298.2305190087844
 20
339.3474818471871
 30
0.0
 11
299.3106265849363
 21
339.3474818471871
 31
0.0
  0
LINE
  5
59A
330
1F
100
AcDbEntity
  8
1
100
AcDbLine
 10
299.3106265849363
 20
339.3474818471871
 30
0.0
 11
299.3106265849363
 21
337.6770514043812
 31
0.0
  0
LINE
  5
59B
330
1F
100
AcDbEntity
  8
1
100
AcDbLine
 10
299.3106265849363
 20
336.5969438282293
 30
0.0
 11
299.3106265849363
 21
334.9265133854235
 31
0.0
  0
LINE
  5
59C
330
1F
100
AcDbEntity
  8
1
100
AcDbLine
 10
299.3106265849363
 20
334.9265133854235
 30
0.0
 11
298.2305190087844
 21
334.9265133854235
 31
0.0
  0
LINE
  5
59D
330
1F
100
AcDbEntity
  8
1
100
AcDbLine
 10
298.2305190087844
 20
334.9265133854235
 30
0.0
 11
298.2305190087844
 21
336.5969438282293
 31
0.0
  0
LINE
  5
59E
330
1F
100
AcDbEntity
  8
1
100
AcDbLine
 10
298.2305190087844
 20
337.6770514043812
 30
0.0
 11
298.2305190087844
 21
339.3474818471871
 31
0.0
  0
LINE
  5
59F
330
1F
100
AcDbEntity
  8
1
100
AcDbLine
 10
296.5600885659786
 20
336.5969438282293
 30
0.0
 11
296.5600885659786
 21
337.6770514043812
 31
0.0
  0
LINE
  5
5A0
330
1F
100
AcDbEntity
  8
1
100
AcDbLine
 10
296.5600885659786
 20
337.6770514043812
 30
0.0
 11
298.2305190087844
 21
337.6770514043812
 31
0.0
  0
LINE
  5
5A1
330
1F
100
AcDbEntity
  8
1
100
AcDbLine
 10
299.3106265849363
 20
337.6770514043812
 30
0.0
 11
300.9810570277422
 21
337.6770514043812
 31
0.0
  0
LINE
  5
5A2
330
1F
100
AcDbEntity
  8
1
100
AcDbLine
 10
300.9810570277422
 20
337.6770514043812
 30
0.0
 11
300.9810570277422
 21
336.5969438282293
 31
0.0
  0
LINE
  5
5A3
330
1F
100
AcDbEntity
  8
1
100
AcDbLine
 10
300.9810570277422
 20
336.5969438282293
 30
0.0
 11
299.3106265849363
 21
336.5969438282293
 31
0.0
  0
LINE
  5
5A4
330
1F
100
AcDbEntity
  8
1
100
AcDbLine
 10
298.2305190087844
 20
336.5969438282293
 30
0.0
 11
296.5600885659786
 21
336.5969438282293
 31
0.0
  0
CIRCLE
  5
5A5
330
1F
100
AcDbEntity
  8
1
100
AcDbCircle
 10
298.7705727968622
 20
297.1369976163034
 30
0.0
 40
3.376687499999999
  0
LINE
  5
5A6
330
1F
100
AcDbEntity
  8
1
100
AcDbLine
 10
298.2305190087844
 20
299.3474818471871
 30
0.0
 11
299.3106265849363
 21
299.3474818471871
 31
0.0
  0
LINE
  5
5A7
330
1F
100
AcDbEntity
  8
1
100
AcDbLine
 10
299.3106265849363
 20
299.3474818471871
 30
0.0
 11
299.3106265849363
 21
297.6770514043812
 31
0.0
  0
LINE
  5
5A8
330
1F
100
AcDbEntity
  8
1
100
AcDbLine
 10
299.3106265849363
 20
296.5969438282293
 30
0.0
 11
299.3106265849363
 21
294.9265133854235
 31
0.0
  0
LINE
  5
5A9
330
1F
100
AcDbEntity
  8
1
100
AcDbLine
 10
299.3106265849363
 20
294.9265133854235
 30
0.0
 11
298.2305190087844
 21
294.9265133854235
 31
0.0
  0
LINE
  5
5AA
330
1F
100
AcDbEntity
  8
1
100
AcDbLine
 10
298.2305190087844
 20
294.9265133854235
 30
0.0
 11
298.2305190087844
 21
296.5969438282293
 31
0.0
  0
LINE
  5
5AB
330
1F
100
AcDbEntity
  8
1
100
AcDbLine
 10
298.2305190087844
 20
297.6770514043812
 30
0.0
 11
298.2305190087844
 21
299.3474818471871
 31
0.0
  0
LINE
  5
5AC
330
1F
100
AcDbEntity
  8
1
100
AcDbLine
 10
296.5600885659786
 20
296.5969438282293
 30
0.0
 11
296.5600885659786
 21
297.6770514043812
 31
0.0
  0
LINE
  5
5AD
330
1F
100
AcDbEntity
  8
1
100
AcDbLine
 10
296.5600885659786
 20
297.6770514043812
 30
0.0
 11
298.2305190087844
 21
297.6770514043812
 31
0.0
  0
LINE
  5
5AE
330
1F
100
AcDbEntity
  8
1
100
AcDbLine
 10
299.3106265849363
 20
297.6770514043812
 30
0.0
 11
300.9810570277422
 21
297.6770514043812
 31
0.0
  0
LINE
  5
5AF
330
1F
100
AcDbEntity
  8
1
100
AcDbLine
 10
300.9810570277422
 20
297.6770514043812
 30
0.0
 11
300.9810570277422
 21
296.5969438282293
 31
0.0
  0
LINE
  5
5B0
330
1F
100
AcDbEntity
  8
1
100
AcDbLine
 10
300.9810570277422
 20
296.5969438282293
 30
0.0
 11
299.3106265849363
 21
296.5969438282293
 31
0.0
  0
LINE
  5
5B1
330
1F
100
AcDbEntity
  8
1
100
AcDbLine
 10
298.2305190087844
 20
296.5969438282293
 30
0.0
 11
296.5600885659786
 21
296.5969438282293
 31
0.0
  0
CIRCLE
  5
5B2
330
1F
100
AcDbEntity
  8
1
100
AcDbCircle
 10
298.7705727968622
 20
257.1369976163035
 30
0.0
 40
3.376687499999999
  0
LINE
  5
5B3
330
1F
100
AcDbEntity
  8
1
100
AcDbLine
 10
298.2305190087844
 20
259.3474818471871
 30
0.0
 11
299.3106265849363
 21
259.3474818471871
 31
0.0
  0
LINE
  5
5B4
330
1F
100
AcDbEntity
  8
1
100
AcDbLine
 10
299.3106265849363
 20
259.3474818471871
 30
0.0
 11
299.3106265849363
 21
257.6770514043813
 31
0.0
  0
LINE
  5
5B5
330
1F
100
AcDbEntity
  8
1
100
AcDbLine
 10
299.3106265849363
 20
256.5969438282293
 30
0.0
 11
299.3106265849363
 21
254.9265133854235
 31
0.0
  0
LINE
  5
5B6
330
1F
100
AcDbEntity
  8
1
100
AcDbLine
 10
299.3106265849363
 20
254.9265133854235
 30
0.0
 11
298.2305190087844
 21
254.9265133854235
 31
0.0
  0
LINE
  5
5B7
330
1F
100
AcDbEntity
  8
1
100
AcDbLine
 10
298.2305190087844
 20
254.9265133854235
 30
0.0
 11
298.2305190087844
 21
256.5969438282293
 31
0.0
  0
LINE
  5
5B8
330
1F
100
AcDbEntity
  8
1
100
AcDbLine
 10
298.2305190087844
 20
257.6770514043813
 30
0.0
 11
298.2305190087844
 21
259.3474818471871
 31
0.0
  0
LINE
  5
5B9
330
1F
100
AcDbEntity
  8
1
100
AcDbLine
 10
296.5600885659786
 20
256.5969438282293
 30
0.0
 11
296.5600885659786
 21
257.6770514043813
 31
0.0
  0
LINE
  5
5BA
330
1F
100
AcDbEntity
  8
1
100
AcDbLine
 10
296.5600885659786
 20
257.6770514043813
 30
0.0
 11
298.2305190087844
 21
257.6770514043813
 31
0.0
  0
LINE
  5
5BB
330
1F
100
AcDbEntity
  8
1
100
AcDbLine
 10
299.3106265849363
 20
257.6770514043813
 30
0.0
 11
300.9810570277422
 21
257.6770514043813
 31
0.0
  0
LINE
  5
5BC
330
1F
100
AcDbEntity
  8
1
100
AcDbLine
 10
300.9810570277422
 20
257.6770514043813
 30
0.0
 11
300.9810570277422
 21
256.5969438282293
 31
0.0
  0
LINE
  5
5BD
330
1F
100
AcDbEntity
  8
1
100
AcDbLine
 10
300.9810570277422
 20
256.5969438282293
 30
0.0
 11
299.3106265849363
 21
256.5969438282293
 31
0.0
  0
LINE
  5
5BE
330
1F
100
AcDbEntity
  8
1
100
AcDbLine
 10
298.2305190087844
 20
256.5969438282293
 30
0.0
 11
296.5600885659786
 21
256.5969438282293
 31
0.0
  0
DIMENSION
  5
5BF
330
1F
100
AcDbEntity
  8
1
370
     9
100
AcDbDimension
  2
*D40
 10
551.2886159833596
 20
247.1369976154321
 30
0.0
 11
559.2886159833596
 21
297.1369976152321
 31
0.0
 70
    32
 71
     5
 42
99.99999999959982
  3
sunopo　2
100
AcDbAlignedDimension
 13
511.662128572976
 23
347.136997615032
 33
0.0
 14
510.9815196251819
 24
247.1369976154321
 34
0.0
 50
90.0
100
AcDbRotatedDimension
1001
ACAD
1000
DSTYLE
1002
{
1070
   340
1005
11
1002
}
  0
DIMENSION
  5
5C0
102
{ACAD_XDICTIONARY
360
5C1
102
}
102
{ACAD_REACTORS
330
5C2
102
}
330
1F
100
AcDbEntity
  8
1
370
     9
100
AcDbDimension
  2
*D49
 10
551.2886159833596
 20
347.136997615032
 30
0.0
 11
559.2886159833595
 21
372.1369976151321
 31
0.0
 70
    32
 71
     5
 42
50.00000000020008
  3
sunopo　2
100
AcDbAlignedDimension
 13
524.9815196251819
 23
397.1369976152321
 33
0.0
 14
510.9815196251819
 24
347.136997615032
 34
0.0
 50
90.0
100
AcDbRotatedDimension
1001
ACAD
1000
DSTYLE
1002
{
1070
   340
1005
11
1002
}
  0
DIMENSION
  5
5C3
102
{ACAD_XDICTIONARY
360
5C4
102
}
102
{ACAD_REACTORS
330
5C5
102
}
330
1F
100
AcDbEntity
  8
1
370
     9
100
AcDbDimension
  2
*D50
 10
348.073656740571
 20
377.1369976152248
 30
0.0
 11
348.073656740571
 21
387.1369976152285
 31
0.0
 70
   160
 71
     5
 42
20.00000000000728
  3
sunopo　2
100
AcDbAlignedDimension
 13
326.2705727968586
 23
397.1369976152321
 33
0.0
 14
314.5205727968586
 24
377.1369976152248
 34
0.0
 50
90.0
100
AcDbRotatedDimension
1001
ACAD
1000
DSTYLE
1002
{
1070
   340
1005
11
1002
}
  0
DIMENSION
  5
5C6
102
{ACAD_XDICTIONARY
360
5C7
102
}
102
{ACAD_REACTORS
330
5C8
102
}
330
1F
100
AcDbEntity
  8
1
370
     9
100
AcDbDimension
  2
*D51
 10
347.573656740571
 20
217.1369976152321
 30
0.0
 11
355.5736567405709
 21
297.1369976152285
 31
0.0
 70
    32
 71
     5
 42
159.9999999999927
  3
sunopo　2
100
AcDbAlignedDimension
 13
316.7705727968586
 23
377.1369976152248
 33
0.0
 14
318.7767267011058
 24
217.1369976152321
 34
0.0
 50
90.0
100
AcDbRotatedDimension
1001
ACAD
1000
DSTYLE
1002
{
1070
   340
1005
11
1002
}
  0
CIRCLE
  5
5C9
330
1F
100
AcDbEntity
  8
1
100
AcDbCircle
 10
280.7705727968622
 20
377.1369976152248
 30
0.0
 40
2.25
  0
CIRCLE
  5
5CA
330
1F
100
AcDbEntity
  8
1
100
AcDbCircle
 10
316.7705727968586
 20
217.1369976152357
 30
0.0
 40
2.25
  0
CIRCLE
  5
5CB
102
{ACAD_REACTORS
330
5EB
102
}
330
1F
100
AcDbEntity
  8
1
100
AcDbCircle
 10
280.7705727968622
 20
217.1369976152357
 30
0.0
 40
2.25
  0
DIMENSION
  5
5CC
102
{ACAD_XDICTIONARY
360
5CD
102
}
102
{ACAD_REACTORS
330
5CE
102
}
330
1F
100
AcDbEntity
  8
1
370
     9
100
AcDbDimension
  2
*D52
 10
251.8529697454813
 20
197.1369976152284
 30
0.0
 11
243.8529697454813
 21
297.1369976152303
 31
0.0
 70
    32
 71
     5
 42
200.0000000000036
  3
sunopo　2
100
AcDbAlignedDimension
 13
271.2705727968622
 23
397.1369976152321
 33
0.0
 14
271.2705727968622
 24
197.1369976152284
 34
0.0
 50
90.0
100
AcDbRotatedDimension
1001
ACAD
1000
DSTYLE
1002
{
1070
   340
1005
11
1002
}
  0
DIMENSION
  5
5CF
102
{ACAD_XDICTIONARY
360
5D0
102
}
102
{ACAD_REACTORS
330
5D1
102
}
330
1F
100
AcDbEntity
  8
1
370
     9
100
AcDbDimension
  2
*D53
 10
326.2705727968622
 20
178.4286395574538
 30
0.0
 11
354.2705727968622
 21
170.4286395574538
 31
0.0
 70
    32
 71
     5
 42
9.500000000003637
  3
sunopo　2
100
AcDbAlignedDimension
 13
316.7705727968586
 23
217.1369976152357
 33
0.0
 14
326.2705727968622
 24
197.1369976152284
 34
0.0
100
AcDbRotatedDimension
1001
ACAD
1000
DSTYLE
1002
{
1070
   340
1005
11
1002
}
  0
DIMENSION
  5
5D2
102
{ACAD_XDICTIONARY
360
5D3
102
}
102
{ACAD_REACTORS
330
5D4
102
}
330
1F
100
AcDbEntity
  8
1
370
     9
100
AcDbDimension
  2
*D54
 10
185.4393548323077
 20
387.1369976162616
 30
0.0
 11
185.4393548323077
 21
392.1369976162617
 31
0.0
 70
   160
 71
     5
 42
10.0
  3
sunopo　2
100
AcDbAlignedDimension
 13
160.706646828943
 23
397.1369976162616
 33
0.0
 14
161.9678751107948
 24
387.1369976162616
 34
0.0
 50
90.0
100
AcDbRotatedDimension
1001
ACAD
1000
DSTYLE
1002
{
1070
   340
1005
11
1002
}
  0
DIMENSION
  5
5D5
330
1F
100
AcDbEntity
  8
1
370
     9
100
AcDbDimension
  2
*D41
 10
180.698346889685
 20
320.1398125971657
 30
0.0
 11
188.6983468896849
 21
353.6384051067137
 31
0.0
 70
    32
 71
     5
 42
66.99718501909592
  3
sunopo　2
100
AcDbAlignedDimension
 13
161.9678751107948
 23
387.1369976162616
 33
0.0
 14
161.9678751107948
 24
320.1398125971657
 34
0.0
 50
90.0
100
AcDbRotatedDimension
1001
ACAD
1000
DSTYLE
1002
{
1070
   340
1005
11
1002
}
  0
DIMENSION
  5
5D6
330
1F
100
AcDbEntity
  8
1
370
     9
100
AcDbDimension
  2
*D42
 10
180.698346889685
 20
236.1446140256551
 30
0.0
 11
188.698346889685
 21
278.1422133114105
 31
0.0
 70
    32
 71
     5
 42
83.99519857151066
  3
sunopo　2
100
AcDbAlignedDimension
 13
161.9678751107948
 23
320.1398125971657
 33
0.0
 14
161.9678751107948
 24
236.1446140256551
 34
0.0
 50
90.0
100
AcDbRotatedDimension
1001
ACAD
1000
DSTYLE
1002
{
1070
   340
1005
11
1002
}
  0
DIMENSION
  5
5D7
102
{ACAD_XDICTIONARY
360
5D8
102
}
102
{ACAD_REACTORS
330
5D9
102
}
330
1F
100
AcDbEntity
  8
1
370
     9
100
AcDbDimension
  2
*D55
 10
97.68350450412427
 20
207.1369976142025
 30
0.0
 11
97.68350450412425
 21
202.1369976142025
 31
0.0
 70
   160
 71
     5
 42
10.0
  3
sunopo　2
100
AcDbAlignedDimension
 13
116.9678751129921
 23
197.1369976142025
 33
0.0
 14
116.9678751129921
 24
207.1369976142025
 34
0.0
 50
90.0
100
AcDbRotatedDimension
1001
ACAD
1000
DSTYLE
1002
{
1070
   340
1005
11
1002
}
  0
DIMENSION
  5
5DA
102
{ACAD_XDICTIONARY
360
5DB
102
}
102
{ACAD_REACTORS
330
5DC
102
}
330
1F
100
AcDbEntity
  8
1
370
     9
100
AcDbDimension
  2
*D56
 10
97.68350450412425
 20
274.1341826333003
 30
0.0
 11
89.68350450412421
 21
240.6355901237514
 31
0.0
 70
    32
 71
     5
 42
66.99718501909771
  3
sunopo　2
100
AcDbAlignedDimension
 13
116.9678751129921
 23
207.1369976142025
 33
0.0
 14
116.9678751129921
 24
274.1341826333003
 34
0.0
 50
90.0
100
AcDbRotatedDimension
1001
ACAD
1000
DSTYLE
1002
{
1070
   340
1005
11
1002
}
  0
DIMENSION
  5
5DD
102
{ACAD_XDICTIONARY
360
5DE
102
}
102
{ACAD_REACTORS
330
5DF
102
}
330
1F
100
AcDbEntity
  8
1
370
     9
100
AcDbDimension
  2
*D57
 10
97.68350450412425
 20
358.1293812048091
 30
0.0
 11
89.68350450412417
 21
316.1317819190547
 31
0.0
 70
    32
 71
     5
 42
83.99519857150881
  3
sunopo　2
100
AcDbAlignedDimension
 13
116.9678751129921
 23
274.1341826333003
 33
0.0
 14
116.9678751129921
 24
358.1293812048091
 34
0.0
 50
90.0
100
AcDbRotatedDimension
1001
ACAD
1000
DSTYLE
1002
{
1070
   340
1005
11
1002
}
  0
DIMENSION
  5
5E0
102
{ACAD_XDICTIONARY
360
5E1
102
}
102
{ACAD_REACTORS
330
5E2
102
}
330
1F
100
AcDbEntity
  8
1
370
     9
100
AcDbDimension
  2
*D58
 10
689.1402550679503
 20
197.1369976142025
 30
0.0
 11
745.803162539287
 21
421.9384017540518
 31
0.0
 70
    34
 71
     5
 42
0.1745329251994239
  3
sunopo　2
100
AcDb2LineAngularDimension
 13
797.6175516797137
 23
389.4837258457167
 33
0.0
 14
762.8879161463281
 24
192.5221752432674
 34
0.0
 15
689.1402550679503
 25
397.1369976162616
 35
0.0
 16
763.6874568134572
 26
412.0704776570656
 36
0.0
1001
ACAD
1000
DSTYLE
1002
{
1070
   340
1005
11
1002
}
  0
DIMENSION
  5
5E3
102
{ACAD_XDICTIONARY
360
5E4
102
}
102
{ACAD_REACTORS
330
5E5
102
}
330
1F
100
AcDbEntity
  8
1
370
     9
100
AcDbDimension
  2
*D59
 10
811.4048602218844
 20
443.0479378983375
 30
0.0
 11
749.0225576446663
 21
451.0479378983375
 31
0.0
 70
    32
 71
     5
 42
124.7646051544361
  3
sunopo　2
100
AcDbAlignedDimension
 13
686.6402550674482
 23
397.1369976162616
 33
0.0
 14
811.4048602218844
 24
387.0526513583766
 34
0.0
100
AcDbRotatedDimension
1001
ACAD
1000
DSTYLE
1002
{
1070
   340
1005
11
1070
   271
1070
     1
1002
}
  0
DIMENSION
  5
5E6
330
1F
100
AcDbEntity
  8
1
370
     9
100
AcDbDimension
  2
*D43
 10
73.43323005724403
 20
212.1369976142025
 30
0.0
 11
65.433230057244
 21
297.1369976152321
 31
0.0
 70
    32
 71
     5
 42
170.0000000020591
  3
sunopo　2
100
AcDbAlignedDimension
 13
132.9678751118934
 23
382.1369976162616
 33
0.0
 14
139.4678751118934
 24
212.1369976142025
 34
0.0
 50
90.0
100
AcDbRotatedDimension
1001
ACAD
1000
DSTYLE
1002
{
1070
   340
1005
11
1002
}
  0
DIMENSION
  5
5E7
330
1F
100
AcDbEntity
  8
1
370
     9
100
AcDbDimension
  2
*D44
 10
73.43323005724403
 20
397.1369976162617
 30
0.0
 11
65.43323005724397
 21
422.4703309495949
 31
0.0
 70
    32
 71
     5
 42
15.0
  3
sunopo　2
100
AcDbAlignedDimension
 13
139.4678751118934
 23
382.1369976162616
 33
0.0
 14
132.9678751118934
 24
397.1369976162616
 34
0.0
 50
90.0
100
AcDbRotatedDimension
1001
ACAD
1000
DSTYLE
1002
{
1070
   340
1005
11
1002
}
  0
DIMENSION
  5
5E8
330
1F
100
AcDbEntity
  8
1
370
     9
100
AcDbDimension
  2
*D45
 10
204.1790446302492
 20
197.1369976142025
 30
0.0
 11
212.1790446302492
 21
297.1369976152321
 31
0.0
 70
    32
 71
     5
 42
200.0000000020591
  3
sunopo　2
100
AcDbAlignedDimension
 13
161.9678751107948
 23
397.1369976162616
 33
0.0
 14
161.0155101507279
 24
197.1369976142025
 34
0.0
 50
90.0
100
AcDbRotatedDimension
1001
ACAD
1000
DSTYLE
1002
{
1070
   340
1005
11
1002
}
  0
DIMENSION
  5
5E9
102
{ACAD_XDICTIONARY
360
5EA
102
}
102
{ACAD_REACTORS
330
5EB
102
}
330
1F
100
AcDbEntity
  8
1
370
     9
100
AcDbDimension
  2
*D60
 10
280.7705727968622
 20
178.4286395574538
 30
0.0
 11
298.7705727968604
 21
170.4286395574538
 31
0.0
 70
    32
 71
     5
 42
35.99999999999636
  3
sunopo　2
100
AcDbAlignedDimension
 13
316.7705727968586
 23
217.1369976152357
 33
0.0
 14
280.7705727968622
 24
217.1369976152357
 34
0.0
100
AcDbRotatedDimension
1001
ACAD
1000
DSTYLE
1002
{
1070
   340
1005
11
1002
}
  0
DIMENSION
  5
5EC
330
1F
100
AcDbEntity
  8
1
370
     9
100
AcDbDimension
  2
*D46
 10
271.2705727968622
 20
151.9508234522447
 30
0.0
 11
298.7705727968622
 21
143.9508234522447
 31
0.0
 70
    32
 71
     5
 42
55.0
  3
sunopo　2
100
AcDbAlignedDimension
 13
326.2705727968622
 23
177.4286395574538
 33
0.0
 14
271.2705727968622
 24
197.1369976152284
 34
0.0
100
AcDbRotatedDimension
1001
ACAD
1000
DSTYLE
1002
{
1070
   340
1005
11
1002
}
  0
DIMENSION
  5
5ED
330
1F
100
AcDbEntity
  8
1
370
     9
100
AcDbDimension
  2
*D47
 10
116.9678751129921
 20
177.609582564962
 30
0.0
 11
139.4678751118934
 21
169.609582564962
 31
0.0
 70
    32
 71
     5
 42
44.99999999780266
  3
sunopo　2
100
AcDbAlignedDimension
 13
161.9678751107948
 23
236.1446140256551
 33
0.0
 14
116.9678751129921
 24
207.1369976142025
 34
0.0
100
AcDbRotatedDimension
1001
ACAD
1000
DSTYLE
1002
{
1070
   340
1005
11
1002
}
  0
DIMENSION
  5
5EE
102
{ACAD_XDICTIONARY
360
5EF
102
}
102
{ACAD_REACTORS
330
5F0
102
}
330
1F
100
AcDbEntity
  8
1
370
     9
100
AcDbDimension
  2
*D61
 10
111.9678751129921
 20
156.7719774394002
 30
0.0
 11
139.4678751118934
 21
148.7719774394002
 31
0.0
 70
    32
 71
     5
 42
54.99999999780266
  3
sunopo　2
100
AcDbAlignedDimension
 13
166.9678751107948
 23
202.1369976142025
 33
0.0
 14
111.9678751129921
 24
202.1369976142025
 34
0.0
100
AcDbRotatedDimension
1001
ACAD
1000
DSTYLE
1002
{
1070
   340
1005
11
1002
}
  0
MTEXT
  5
5F1
330
1F
100
AcDbEntity
  8
0
370
     9
100
AcDbMText
 10
696.6939381625433
 20
402.0708950765667
 30
0.0
 40
6.648535066983415
 41
254.1503157823218
 71
     1
 72
     5
  1
SP-16-R=最大5度\PSP-4/8-R=最大10度
 73
     1
 44
1.0
1001
ACAD
1000
MTEXTBEGIN
1070
    73
1070
     1
1070
    44
1040
1.0
1070
    74
1070
     0
1000
MTEXTEND
  0
LEADER
  5
5F2
330
1F
100
AcDbEntity
  8
1
370
     9
100
AcDbLeader
  3
sunopo　2
 73
     0
 40
16.0
 41
118.4
 76
     3
 10
518.4815196251819
 20
227.1387983358011
 30
0.0
 10
569.4353258005447
 20
157.5808169928871
 30
0.0
 10
687.3498536175019
 20
157.5808169928871
 30
0.0
340
5F3
213
119.090909090909
223
-9.041690637342981
233
0.0
1001
ACAD
1000
DSTYLE
1002
{
1070
   147
1040
4.0
1070
    77
1070
     0
1002
}
  0
MTEXT
  5
5F3
102
{ACAD_REACTORS
330
5F2
102
}
330
1F
100
AcDbEntity
  8
1
370
     9
100
AcDbMText
 10
572.2589445265929
 20
166.6225076302301
 30
0.0
 40
6.0
 41
0.0
 71
     1
 72
     1
  1
\A1;4-φ4.5×3.5長穴（対面同位置）\Pスピーカ固定用
 73
     1
 44
1.0
1001
ACAD
1000
MTEXTBEGIN
1070
    73
1070
     1
1070
    44
1040
1.0
1070
    74
1070
     0
1000
MTEXTEND
  0
LEADER
  5
5F4
330
1F
100
AcDbEntity
  8
1
370
     9
100
AcDbLeader
  3
sunopo　2
 73
     0
 40
16.0
 41
48.4
 76
     3
 10
280.7705727968622
 20
377.1369976152248
 30
0.0
 10
306.6811940560746
 20
434.0129520360435
 30
0.0
 10
364.0698311045252
 20
434.0129520360453
 30
0.0
340
5F5
213
59.84090909090809
223
-9.00180569474287
233
0.0
1001
ACAD
1000
DSTYLE
1002
{
1070
   147
1040
4.0
1070
    77
1070
     0
1002
}
  0
MTEXT
  5
5F5
102
{ACAD_REACTORS
330
5F4
102
}
330
1F
100
AcDbEntity
  8
1
370
     9
100
AcDbMText
 10
308.2289220136171
 20
443.0147577307882
 30
0.0
 40
6.0
 41
0.0
 71
     1
 72
     1
  1
\A1;4-φ4.5\Pスピーカ固定用
 73
     1
 44
1.0
1001
ACAD
1000
MTEXTBEGIN
1070
    73
1070
     1
1070
    44
1040
1.0
1070
    74
1070
     0
1000
MTEXTEND
  0
LEADER
  5
5F6
330
1F
100
AcDbEntity
  8
1
370
     9
100
AcDbLeader
  3
sunopo　2
 73
     0
 40
16.0
 41
34.0
 76
     3
 10
161.9678751107948
 20
387.1369976162616
 30
0.0
 10
184.897429496128
 20
432.9253688511792
 30
0.0
 10
228.6497029082119
 20
432.925368851181
 30
0.0
340
5F7
213
46.20454545454504
223
-9.00180569474287
233
0.0
1001
ACAD
1000
DSTYLE
1002
{
1070
   147
1040
4.0
1070
    77
1070
     0
1002
}
  0
MTEXT
  5
5F7
102
{ACAD_REACTORS
330
5F6
102
}
330
1F
100
AcDbEntity
  8
1
370
     9
100
AcDbMText
 10
186.4451574536668
 20
441.9271745459239
 30
0.0
 40
6.0
 41
0.0
 71
     1
 72
     1
  1
\A1;6-φ5\P壁面固定用
 73
     1
 44
1.0
1001
ACAD
1000
MTEXTBEGIN
1070
    73
1070
     1
1070
    44
1040
1.0
1070
    74
1070
     0
1000
MTEXTEND
  0
LEADER
  5
5F8
330
1F
100
AcDbEntity
  8
1
370
     9
100
AcDbLeader
  3
sunopo　2
 73
     0
 40
16.0
 41
34.0
 76
     3
 10
139.4678751118934
 20
212.1369976142025
 30
0.0
 10
178.3375322313094
 20
172.5385321782025
 30
0.0
 10
228.589805643397
 20
172.5385321782044
 30
0.0
340
5F9
213
46.20454545454504
223
-9.00180569474287
233
0.0
1001
ACAD
1000
DSTYLE
1002
{
1070
   147
1040
4.0
1070
    77
1070
     0
1002
}
  0
MTEXT
  5
5F9
102
{ACAD_REACTORS
330
5F8
102
}
330
1F
100
AcDbEntity
  8
1
370
     9
100
AcDbMText
 10
186.3852601888519
 20
181.5403378729472
 30
0.0
 40
6.0
 41
0.0
 71
     1
 72
     1
  1
\A1;2-φ10\P壁面固定用
 73
     1
 44
1.0
1001
ACAD
1000
MTEXTBEGIN
1070
    73
1070
     1
1070
    44
1040
1.0
1070
    74
1070
     0
1000
MTEXTEND
  0
MTEXT
  5
5FA
330
1F
100
AcDbEntity
  8
0
370
    13
100
AcDbMText
 10
153.7272076260068
 20
502.9312575417363
 30
0.0
 40
7.091770738115643
 41
271.0936701678099
 71
     1
 72
     5
  1
：　垂直＝最大10度（SP-16－Rは、最大5度）
  7
\U+6837式 1
 73
     1
 44
1.0
1001
ACAD
1000
MTEXTBEGIN
1070
    73
1070
     1
1070
    44
1040
1.0
1070
    74
1070
     0
1000
MTEXTEND
  0
LINE
  5
5FB
330
1F
100
AcDbEntity
  8
1
100
AcDbLine
 10
704.140255067892
 20
509.5636793304304
 30
0.0
 11
689.1402550679503
 21
509.5636793304304
 31
0.0
  0
LINE
  5
5FC
330
1F
100
AcDbEntity
  8
1
100
AcDbLine
 10
689.1402550679503
 20
526.563679331891
 30
0.0
 11
704.140255067892
 21
526.563679331891
 31
0.0
  0
LINE
  5
5FD
330
1F
100
AcDbEntity
  8
1
100
AcDbLine
 10
691.140255065913
 20
526.563679331891
 30
0.0
 11
691.140255065913
 21
509.5636793304304
 31
0.0
  0
CIRCLE
  5
5FE
330
1F
100
AcDbEntity
  8
1
100
AcDbCircle
 10
704.140255067892
 20
518.063679329892
 30
0.0
 40
4.000000001
  0
ARC
  5
5FF
330
1F
100
AcDbEntity
  8
1
100
AcDbCircle
 10
703.6246300678884
 20
518.063679329892
 30
0.0
 40
8.515624999461046
100
AcDbArc
 50
273.4714091780144
 51
86.5285908219856
  0
LINE
  5
600
330
1F
100
AcDbEntity
  8
1
100
AcDbLine
 10
715.1955770674848
 20
543.9630973827254
 30
0.0
 11
709.4577485302705
 21
545.7173276115002
 31
0.0
  0
LINE
  5
601
330
1F
100
AcDbEntity
  8
1
100
AcDbLine
 10
711.4940837588382
 20
521.5951474441147
 30
0.0
 11
725.3737839527692
 21
566.9936011672119
 31
0.0
  0
LINE
  5
602
330
1F
100
AcDbEntity
  8
1
100
AcDbLine
 10
714.3184619527254
 20
541.0941831129068
 30
0.0
 11
708.5806334155148
 21
542.8484133416798
 31
0.0
  0
LINE
  5
603
330
1F
100
AcDbEntity
  8
1
100
AcDbLine
 10
720.7506394570426
 20
562.1328877454482
 30
0.0
 11
715.1955770674848
 21
543.9630973827254
 31
0.0
  0
LINE
  5
604
330
1F
100
AcDbEntity
  8
1
100
AcDbLine
 10
714.3184619527254
 20
541.0941831129068
 30
0.0
 11
709.3481429729052
 21
524.8370022630636
 31
0.0
  0
LINE
  5
605
330
1F
100
AcDbEntity
  8
1
100
AcDbLine
 10
703.6103144356947
 20
526.5912324918383
 30
0.0
 11
708.5806334155148
 21
542.8484133416798
 31
0.0
  0
LINE
  5
606
330
1F
100
AcDbEntity
  8
1
100
AcDbLine
 10
709.4577485302705
 20
545.7173276115002
 30
0.0
 11
715.0128109198284
 21
563.8871179742247
 31
0.0
  0
LINE
  5
607
330
1F
100
AcDbEntity
  8
1
100
AcDbLine
 10
713.8981268807709
 20
570.5020616240192
 30
0.0
 11
700.0184266861014
 21
525.1036078985082
 31
0.0
  0
LINE
  5
608
330
1F
100
AcDbEntity
  8
1
100
AcDbLine
 10
709.3481429729052
 20
524.8370022630636
 30
0.0
 11
703.6103144356947
 21
526.5912324918383
 31
0.0
  0
LINE
  5
609
330
1F
100
AcDbEntity
  8
1
100
AcDbLine
 10
725.3737839527692
 20
566.9936011672119
 30
0.0
 11
722.504869685379
 21
567.870716281229
 31
0.0
  0
LINE
  5
60A
330
1F
100
AcDbEntity
  8
1
100
AcDbLine
 10
716.7670411481648
 20
569.624946510002
 30
0.0
 11
713.8981268807709
 21
570.5020616240192
 31
0.0
  0
LINE
  5
60B
330
1F
100
AcDbEntity
  8
1
100
AcDbLine
 10
722.504869685379
 20
567.870716281229
 30
0.0
 11
719.7167886085898
 21
565.5860429393335
 31
0.0
  0
LINE
  5
60C
330
1F
100
AcDbEntity
  8
1
100
AcDbLine
 10
719.7167886085898
 20
565.5860429393335
 30
0.0
 11
717.800891996614
 21
566.1717913161185
 31
0.0
  0
LINE
  5
60D
330
1F
100
AcDbEntity
  8
1
100
AcDbLine
 10
716.7670411481648
 20
569.624946510002
 30
0.0
 11
717.800891996614
 21
566.1717913161185
 31
0.0
  0
LINE
  5
60E
330
1F
100
AcDbEntity
  8
1
100
AcDbLine
 10
720.7506394570426
 20
562.1328877454482
 30
0.0
 11
715.0128109198284
 21
563.8871179742247
 31
0.0
  0
LINE
  5
60F
330
1F
100
AcDbEntity
  8
1
100
AcDbLine
 10
714.4753339716825
 20
525.3608461759425
 30
0.0
 11
713.3277682640454
 21
525.7116922217567
 31
0.0
  0
LINE
  5
610
330
1F
100
AcDbEntity
  8
1
100
AcDbLine
 10
700.8001759622874
 20
529.5417615532108
 30
0.0
 11
699.6526102546539
 21
529.8926075990232
 31
0.0
  0
LINE
  5
611
330
1F
100
AcDbEntity
  8
1
100
AcDbLine
 10
699.6526102546503
 20
529.892607599025
 30
0.0
 11
717.1949125379559
 21
587.2708929566154
 31
0.0
  0
LINE
  5
612
330
1F
100
AcDbEntity
  8
1
100
AcDbLine
 10
700.8001759622874
 20
529.5417615532108
 30
0.0
 11
717.9916321997787
 21
585.7724812031676
 31
0.0
  0
LINE
  5
613
330
1F
100
AcDbEntity
  8
1
100
AcDbLine
 10
713.3277682640454
 20
525.7116922217567
 30
0.0
 11
730.5192245015367
 21
581.9424118717154
 31
0.0
  0
LINE
  5
614
330
1F
100
AcDbEntity
  8
1
100
AcDbLine
 10
732.0176362549881
 20
582.7391315335328
 30
0.0
 11
714.4753339716825
 21
525.3608461759425
 31
0.0
  0
LINE
  5
615
330
1F
100
AcDbEntity
  8
1
100
AcDbLine
 10
717.9916321997787
 20
585.7724812031676
 30
0.0
 11
730.5192245015367
 21
581.9424118717154
 31
0.0
  0
LINE
  5
616
330
1F
100
AcDbEntity
  8
1
100
AcDbLine
 10
717.1949125379559
 20
587.2708929566154
 30
0.0
 11
732.0176362549881
 21
582.7391315335328
 31
0.0
  0
LINE
  5
617
330
1F
100
AcDbEntity
  8
1
100
AcDbLine
 10
750.4265028074749
 20
577.1109762175594
 30
0.0
 11
698.786045985469
 21
592.8990482725869
 31
0.0
  0
LINE
  5
618
330
1F
100
AcDbEntity
  8
1
100
AcDbLine
 10
749.0986367049934
 20
579.6083291389306
 30
0.0
 11
701.2833989068402
 21
594.2269143750684
 31
0.0
  0
LINE
  5
619
330
1F
100
AcDbEntity
  8
1
100
AcDbLine
 10
698.786045985469
 20
592.8990482725869
 30
0.0
 11
702.8792498515884
 21
606.2873148560695
 31
0.0
  0
LINE
  5
61A
330
1F
100
AcDbEntity
  8
1
100
AcDbLine
 10
701.2833989068402
 20
594.2269143750684
 30
0.0
 11
704.791859363513
 21
605.7025714466247
 31
0.0
  0
LINE
  5
61B
330
1F
100
AcDbEntity
  8
1
100
AcDbLine
 10
750.4265028074749
 20
577.1109762175594
 30
0.0
 11
754.5197066735944
 21
590.499242801042
 31
0.0
  0
LINE
  5
61C
330
1F
100
AcDbEntity
  8
1
100
AcDbLine
 10
749.0986367049934
 20
579.6083291389306
 30
0.0
 11
752.6070971616662
 21
591.0839862104888
 31
0.0
  0
LINE
  5
61D
330
1F
100
AcDbEntity
  8
1
100
AcDbLine
 10
754.5197066735944
 20
590.499242801042
 30
0.0
 11
752.6070971616662
 21
591.0839862104888
 31
0.0
  0
LINE
  5
61E
330
1F
100
AcDbEntity
  8
1
100
AcDbLine
 10
704.791859363513
 20
605.7025714466247
 30
0.0
 11
702.8792498515884
 21
606.2873148560695
 31
0.0
  0
LINE
  5
61F
330
1F
100
AcDbEntity
  8
1
100
AcDbLine
 10
708.1239719253006
 20
511.1636793298905
 30
0.0
 11
712.1076887827093
 21
518.063679329892
 31
0.0
  0
LINE
  5
620
330
1F
100
AcDbEntity
  8
1
100
AcDbLine
 10
708.1239719253006
 20
524.9636793298898
 30
0.0
 11
712.1076887827093
 21
518.063679329892
 31
0.0
  0
LINE
  5
621
330
1F
100
AcDbEntity
  8
1
100
AcDbLine
 10
700.1565382104835
 20
511.1636793298905
 30
0.0
 11
708.1239719253006
 21
511.1636793298905
 31
0.0
  0
LINE
  5
622
330
1F
100
AcDbEntity
  8
1
100
AcDbLine
 10
700.1565382104835
 20
524.9636793298898
 30
0.0
 11
708.1239719253006
 21
524.9636793298898
 31
0.0
  0
LINE
  5
623
330
1F
100
AcDbEntity
  8
1
100
AcDbLine
 10
700.1565382104835
 20
511.1636793298905
 30
0.0
 11
696.1728213530749
 21
518.063679329892
 31
0.0
  0
LINE
  5
624
330
1F
100
AcDbEntity
  8
1
100
AcDbLine
 10
700.1565382104835
 20
524.9636793298898
 30
0.0
 11
696.1728213530749
 21
518.063679329892
 31
0.0
  0
CIRCLE
  5
625
330
1F
100
AcDbEntity
  8
1
100
AcDbCircle
 10
704.140255067892
 20
518.063679329892
 30
0.0
 40
8.0
  0
LINE
  5
626
330
1F
100
AcDbEntity
  8
1
100
AcDbLine
 10
722.0788340752168
 20
545.1003189694867
 30
0.0
 11
727.8166626109976
 21
543.3460887411504
 31
0.0
  0
LINE
  5
627
330
1F
100
AcDbEntity
  8
1
100
AcDbLine
 10
727.8166626109976
 20
543.3460887411504
 30
0.0
 11
731.8513921361681
 21
556.5430943734402
 31
0.0
  0
LINE
  5
628
330
1F
100
AcDbEntity
  8
1
100
AcDbLine
 10
726.1135636003908
 20
558.2973246017766
 30
0.0
 11
731.8513921361681
 21
556.5430943734402
 31
0.0
  0
LINE
  5
629
330
1F
100
AcDbEntity
  8
1
100
AcDbLine
 10
722.0788340752168
 20
545.1003189694867
 30
0.0
 11
726.1135636003908
 21
558.2973246017766
 31
0.0
  0
LINE
  5
62A
330
1F
100
AcDbEntity
  8
1
100
AcDbLine
 10
724.0961988378057
 20
551.6988217856317
 30
0.0
 11
729.8340273735829
 21
549.9445915572953
 31
0.0
  0
LINE
  5
62B
330
1F
100
AcDbEntity
  8
1
100
AcDbLine
 10
725.0007153416426
 20
559.7878173904202
 30
0.0
 11
726.4351724755851
 21
559.349259833337
 31
0.0
  0
LINE
  5
62C
330
1F
100
AcDbEntity
  8
1
100
AcDbLine
 10
726.4351724755851
 20
559.349259833337
 30
0.0
 11
721.7572252000226
 21
544.0483837379263
 31
0.0
  0
LINE
  5
62D
330
1F
100
AcDbEntity
  8
1
100
AcDbLine
 10
721.7572252000226
 20
544.0483837379263
 30
0.0
 11
720.3227680660801
 21
544.4869412950112
 31
0.0
  0
LINE
  5
62E
330
1F
100
AcDbEntity
  8
1
100
AcDbLine
 10
720.3227680660801
 20
544.4869412950112
 30
0.0
 11
725.0007153416426
 21
559.7878173904202
 31
0.0
  0
ARC
  5
62F
330
1F
100
AcDbEntity
  8
1
100
AcDbCircle
 10
713.8102654501143
 20
554.8491039845004
 30
0.0
 40
10.11267840800954
100
AcDbArc
 50
111.1673262025989
 51
214.9302212414274
  0
LINE
  5
630
330
1F
100
AcDbEntity
  8
1
100
AcDbLine
 10
710.158649690229
 20
564.2794786815113
 30
0.0
 11
705.5193862834292
 21
549.0588028500799
 31
0.0
  0
MTEXT
  5
631
330
1F
100
AcDbEntity
  8
0
370
    13
100
AcDbMText
 10
48.93751493705884
 20
488.1047120520754
 30
0.0
 40
7.091770738115643
 41
271.0936701678099
 71
     1
 72
     5
  1
付属品
  7
\U+6837式 1
 73
     1
 44
1.0
1001
ACAD
1000
MTEXTBEGIN
1070
    73
1070
     1
1070
    44
1040
1.0
1070
    74
1070
     0
1000
MTEXTEND
  0
MTEXT
  5
632
330
1F
100
AcDbEntity
  8
0
370
    13
100
AcDbMText
 10
153.7272076260068
 20
487.5808880770976
 30
0.0
 40
7.091770738115643
 41
271.0936701678099
 71
     1
 72
     5
  1
：　M4ビス×8ヶ
  7
\U+6837式 1
 73
     1
 44
1.0
1001
ACAD
1000
MTEXTBEGIN
1070
    73
1070
     1
1070
    44
1040
1.0
1070
    74
1070
     0
1000
MTEXTEND
  0
LINE
  5
633
102
{ACAD_REACTORS
330
637
102
}
330
1F
100
AcDbEntity
  8
1
  6
CENTER
 48
20.0
370
     5
100
AcDbLine
 10
704.140255067892
 20
518.063679329892
 30
0.0
 11
763.1383042448596
 21
518.063679329892
 31
0.0
  0
LINE
  5
634
102
{ACAD_REACTORS
330
637
102
}
330
1F
100
AcDbEntity
  8
1
  6
CENTER
 48
20.0
370
     5
100
AcDbLine
 10
704.140255067892
 20
518.063679329892
 30
0.0
 11
721.3896152810756
 21
574.4837943503691
 31
0.0
  0
DIMENSION
  5
635
102
{ACAD_XDICTIONARY
360
636
102
}
102
{ACAD_REACTORS
330
637
102
}
330
1F
100
AcDbEntity
  8
1
370
     9
100
AcDbDimension
  2
*D62
 10
721.3896152810756
 20
574.4837943503691
 30
0.0
 11
788.2999065999682
 21
580.338545551593
 31
0.0
 70
    34
 71
     5
 42
1.274090353955909
  3
sunopo　2
100
AcDb2LineAngularDimension
 13
704.140255067892
 23
518.063679329892
 33
0.0
 14
763.1383042448596
 24
518.063679329892
 34
0.0
 15
704.140255067892
 25
518.063679329892
 35
0.0
 16
792.2450687910814
 26
557.9062513335287
 36
0.0
1001
ACAD
1000
DSTYLE
1002
{
1070
   340
1005
11
1002
}
  0
LINE
  5
638
330
1F
100
AcDbEntity
  8
1
370
     9
100
AcDbLine
 10
537.8169532105329
 20
425.5544513162833
 30
0.0
 11
537.8169532105329
 21
438.9787504909556
 31
0.0
  0
LINE
  5
639
330
1F
100
AcDbEntity
  8
1
370
     9
100
AcDbLine
 10
537.8169532105329
 20
438.9787504909556
 30
0.0
 11
522.0756013575099
 21
438.9787504909556
 31
0.0
  0
LINE
  5
63A
330
1F
100
AcDbEntity
  8
1
370
     9
100
AcDbLine
 10
522.0756013575099
 20
438.9787504909556
 30
0.0
 11
532.5831497686102
 21
442.608464919723
 31
0.0
  0
LINE
  5
63B
330
1F
100
AcDbEntity
  8
1
370
     9
100
AcDbLine
 10
522.0756013575099
 20
438.9787504909556
 30
0.0
 11
532.5831497686102
 21
435.3490360621883
 31
0.0
  0
LINE
  5
63C
330
1F
100
AcDbEntity
  8
1
370
     9
100
AcDbLine
 10
537.8169532105329
 20
147.56107427356
 30
0.0
 11
537.8169532105329
 21
134.1367750988877
 31
0.0
  0
LINE
  5
63D
330
1F
100
AcDbEntity
  8
1
370
     9
100
AcDbLine
 10
537.8169532105329
 20
134.1367750988877
 30
0.0
 11
522.0756013575099
 21
134.1367750988877
 31
0.0
  0
LINE
  5
63E
330
1F
100
AcDbEntity
  8
1
370
     9
100
AcDbLine
 10
522.0756013575099
 20
134.1367750988877
 30
0.0
 11
532.5831497686102
 21
130.5070606701204
 31
0.0
  0
LINE
  5
63F
330
1F
100
AcDbEntity
  8
1
370
     9
100
AcDbLine
 10
522.0756013575099
 20
134.1367750988877
 30
0.0
 11
532.5831497686102
 21
137.766489527655
 31
0.0
  0
MTEXT
  5
640
330
1F
100
AcDbEntity
  8
1
370
     9
100
AcDbMText
 10
527.743774328819
 20
455.3977885915749
 30
0.0
 40
8.0
 41
0.0
 71
     1
 72
     1
  1
\A1;A
 73
     1
 44
1.0
1001
ACAD
1000
MTEXTBEGIN
1070
    73
1070
     1
1070
    44
1040
1.0
1070
    74
1070
     0
1000
MTEXTEND
  0
MTEXT
  5
641
330
1F
100
AcDbEntity
  8
1
370
     9
100
AcDbMText
 10
527.743774328819
 20
126.1763395459377
 30
0.0
 40
8.0
 41
0.0
 71
     1
 72
     1
  1
\A1;A’
 73
     1
 44
1.0
1001
ACAD
1000
MTEXTBEGIN
1070
    73
1070
     1
1070
    44
1040
1.0
1070
    74
1070
     0
1000
MTEXTEND
  0
LINE
  5
642
330
1F
100
AcDbEntity
  8
1
370
     9
100
AcDbLine
 10
444.3078983865943
 20
425.5544513162833
 30
0.0
 11
444.3078983865943
 21
438.9787504909556
 31
0.0
  0
LINE
  5
643
330
1F
100
AcDbEntity
  8
1
370
     9
100
AcDbLine
 10
444.3078983865943
 20
438.9787504909556
 30
0.0
 11
428.5665465335713
 21
438.9787504909556
 31
0.0
  0
LINE
  5
644
330
1F
100
AcDbEntity
  8
1
370
     9
100
AcDbLine
 10
428.5665465335713
 20
438.9787504909556
 30
0.0
 11
439.0740949446716
 21
442.608464919723
 31
0.0
  0
LINE
  5
645
330
1F
100
AcDbEntity
  8
1
370
     9
100
AcDbLine
 10
428.5665465335713
 20
438.9787504909556
 30
0.0
 11
439.0740949446716
 21
435.3490360621883
 31
0.0
  0
LINE
  5
646
330
1F
100
AcDbEntity
  8
1
370
     9
100
AcDbLine
 10
444.3078983865943
 20
147.56107427356
 30
0.0
 11
444.3078983865943
 21
134.1367750988877
 31
0.0
  0
LINE
  5
647
330
1F
100
AcDbEntity
  8
1
370
     9
100
AcDbLine
 10
444.3078983865943
 20
134.1367750988877
 30
0.0
 11
428.5665465335713
 21
134.1367750988877
 31
0.0
  0
LINE
  5
648
330
1F
100
AcDbEntity
  8
1
370
     9
100
AcDbLine
 10
428.5665465335713
 20
134.1367750988877
 30
0.0
 11
439.0740949446716
 21
130.5070606701204
 31
0.0
  0
LINE
  5
649
330
1F
100
AcDbEntity
  8
1
370
     9
100
AcDbLine
 10
428.5665465335713
 20
134.1367750988877
 30
0.0
 11
439.0740949446716
 21
137.766489527655
 31
0.0
  0
MTEXT
  5
64A
330
1F
100
AcDbEntity
  8
1
370
     9
100
AcDbMText
 10
434.2347195048804
 20
455.3977885915749
 30
0.0
 40
8.0
 41
0.0
 71
     1
 72
     1
  1
\A1;B
 73
     1
 44
1.0
1001
ACAD
1000
MTEXTBEGIN
1070
    73
1070
     1
1070
    44
1040
1.0
1070
    74
1070
     0
1000
MTEXTEND
  0
MTEXT
  5
64B
330
1F
100
AcDbEntity
  8
1
370
     9
100
AcDbMText
 10
434.2347195048804
 20
126.1763395459377
 30
0.0
 40
8.0
 41
0.0
 71
     1
 72
     1
  1
\A1;B’
 73
     1
 44
1.0
1001
ACAD
1000
MTEXTBEGIN
1070
    73
1070
     1
1070
    44
1040
1.0
1070
    74
1070
     0
1000
MTEXTEND
  0
MTEXT
  5
64C
330
1F
100
AcDbEntity
  8
1
370
     9
100
AcDbMText
 10
289.0354749467823
 20
126.1763395459377
 30
0.0
 40
8.0
 41
0.0
 71
     1
 72
     1
  1
\A1;A-A’
 73
     1
 44
1.0
1001
ACAD
1000
MTEXTBEGIN
1070
    73
1070
     1
1070
    44
1040
1.0
1070
    74
1070
     0
1000
MTEXTEND
  0
MTEXT
  5
64D
330
1F
100
AcDbEntity
  8
1
370
     9
100
AcDbMText
 10
125.7827461620053
 20
126.1763395459377
 30
0.0
 40
8.0
 41
0.0
 71
     1
 72
     1
  1
\A1;B-B’
 73
     1
 44
1.0
1001
ACAD
1000
MTEXTBEGIN
1070
    73
1070
     1
1070
    44
1040
1.0
1070
    74
1070
     0
1000
MTEXTEND
  0
LINE
  5
64E
330
1F
100
AcDbEntity
  8
1
100
AcDbLine
 10
689.1402550679539
 20
491.0636793311598
 30
0.0
 11
686.6402550674519
 21
491.0636793311598
 31
0.0
  0
LINE
  5
64F
330
1F
100
AcDbEntity
  8
1
100
AcDbLine
 10
689.1402550679539
 20
491.0636793311598
 30
0.0
 11
689.1402550679503
 21
545.0636793311616
 31
0.0
  0
LINE
  5
650
330
1F
100
AcDbEntity
  8
1
100
AcDbLine
 10
686.6402550674519
 20
491.0636793311598
 30
0.0
 11
686.6402550674482
 21
545.0636793311616
 31
0.0
  0
LINE
  5
651
330
1F
100
AcDbEntity
  8
1
100
AcDbLine
 10
689.1402550679503
 20
545.0636793311616
 30
0.0
 11
686.6402550674482
 21
545.0636793311616
 31
0.0
  0
MTEXT
  5
652
330
1F
100
AcDbEntity
  8
0
370
    13
100
AcDbMText
 10
32.3833577138156
 20
103.0531389742448
 30
0.0
 40
7.263524560679382
 41
277.6592199921866
 71
     1
 72
     5
  1
リオス株式会社　2014年
  7
\U+6837式 1
 73
     1
 44
1.0
1001
ACAD
1000
MTEXTBEGIN
1070
    73
1070
     1
1070
    44
1040
1.0
1070
    74
1070
     0
1000
MTEXTEND
  0
ENDSEC
  0
SECTION
  2
OBJECTS
  0
DICTIONARY
  5
C
330
0
100
AcDbDictionary
281
     1
  3
ACAD_COLOR
350
6B
  3
ACAD_GROUP
350
D
  3
ACAD_LAYOUT
350
1A
  3
ACAD_MATERIAL
350
6A
  3
ACAD_MLINESTYLE
350
17
  3
ACAD_PLOTSETTINGS
350
19
  3
ACAD_PLOTSTYLENAME
350
E
  3
ACAD_TABLESTYLE
350
7E
  3
ACAD_VISUALSTYLE
350
F2
  3
AcDbVariableDictionary
350
5E
  3
DWGPROPS
350
856
  0
DICTIONARY
  5
297
330
2
100
AcDbDictionary
280
     1
281
     1
  3
ACAD_LAYERSTATES
360
298
  0
DICTIONARY
  5
58F
330
58E
100
AcDbDictionary
280
     1
281
     1
  3
ACAD_DIMASSOC
360
590
  0
DICTIONARY
  5
5C1
330
5C0
100
AcDbDictionary
280
     1
281
     1
  3
ACAD_DIMASSOC
360
5C2
  0
DICTIONARY
  5
5C4
330
5C3
100
AcDbDictionary
280
     1
281
     1
  3
ACAD_DIMASSOC
360
5C5
  0
DICTIONARY
  5
5C7
330
5C6
100
AcDbDictionary
280
     1
281
     1
  3
ACAD_DIMASSOC
360
5C8
  0
DICTIONARY
  5
5CD
330
5CC
100
AcDbDictionary
280
     1
281
     1
  3
ACAD_DIMASSOC
360
5CE
  0
DICTIONARY
  5
5D0
330
5CF
100
AcDbDictionary
280
     1
281
     1
  3
ACAD_DIMASSOC
360
5D1
  0
DICTIONARY
  5
5D3
330
5D2
100
AcDbDictionary
280
     1
281
     1
  3
ACAD_DIMASSOC
360
5D4
  0
DICTIONARY
  5
5D8
330
5D7
100
AcDbDictionary
280
     1
281
     1
  3
ACAD_DIMASSOC
360
5D9
  0
DICTIONARY
  5
5DB
330
5DA
100
AcDbDictionary
280
     1
281
     1
  3
ACAD_DIMASSOC
360
5DC
  0
DICTIONARY
  5
5DE
330
5DD
100
AcDbDictionary
280
     1
281
     1
  3
ACAD_DIMASSOC
360
5DF
  0
DICTIONARY
  5
5E1
330
5E0
100
AcDbDictionary
280
     1
281
     1
  3
ACAD_DIMASSOC
360
5E2
  0
DICTIONARY
  5
5E4
330
5E3
100
AcDbDictionary
280
     1
281
     1
  3
ACAD_DIMASSOC
360
5E5
  0
DICTIONARY
  5
5EA
330
5E9
100
AcDbDictionary
280
     1
281
     1
  3
ACAD_DIMASSOC
360
5EB
  0
DICTIONARY
  5
5EF
330
5EE
100
AcDbDictionary
280
     1
281
     1
  3
ACAD_DIMASSOC
360
5F0
  0
DICTIONARY
  5
636
330
635
100
AcDbDictionary
280
     1
281
     1
  3
ACAD_DIMASSOC
360
637
  0
DICTIONARY
  5
6B
102
{ACAD_REACTORS
330
C
102
}
330
C
100
AcDbDictionary
281
     1
  0
DICTIONARY
  5
D
102
{ACAD_REACTORS
330
C
102
}
330
C
100
AcDbDictionary
281
     1
  0
DICTIONARY
  5
1A
102
{ACAD_REACTORS
330
C
102
}
330
C
100
AcDbDictionary
281
     1
  3
Model
350
22
  3
レイアウト1
350
D3
  3
レイアウト2
350
D7
  0
DICTIONARY
  5
6A
102
{ACAD_REACTORS
330
C
102
}
330
C
100
AcDbDictionary
281
     1
  3
ByBlock
350
F0
  3
ByLayer
350
EF
  3
Global
350
F1
  0
DICTIONARY
  5
17
102
{ACAD_REACTORS
330
C
102
}
330
C
100
AcDbDictionary
281
     1
  3
Standard
350
18
  0
DICTIONARY
  5
19
102
{ACAD_REACTORS
330
C
102
}
330
C
100
AcDbDictionary
281
     1
  0
ACDBDICTIONARYWDFLT
  5
E
102
{ACAD_REACTORS
330
C
102
}
330
C
100
AcDbDictionary
281
     1
  3
Normal
350
F
100
AcDbDictionaryWithDefault
340
F
  0
DICTIONARY
  5
7E
102
{ACAD_REACTORS
330
C
102
}
330
C
100
AcDbDictionary
281
     1
  3
Standard
350
7F
  0
DICTIONARY
  5
F2
102
{ACAD_REACTORS
330
C
102
}
330
C
100
AcDbDictionary
281
     1
  3
2dWireframe
350
F8
  3
3D Hidden
350
FA
  3
3dWireframe
350
F9
  3
Basic
350
F7
  3
Brighten
350
FE
  3
ColorChange
350
102
  3
Conceptual
350
FB
  3
Dim
350
FD
  3
Facepattern
350
101
  3
Flat
350
F3
  3
FlatWithEdges
350
F4
  3
Gouraud
350
F5
  3
GouraudWithEdges
350
F6
  3
Linepattern
350
100
  3
Realistic
350
FC
  3
Thicken
350
FF
  0
DICTIONARY
  5
5E
102
{ACAD_REACTORS
330
C
102
}
330
C
100
AcDbDictionary
281
     1
  3
CTABLESTYLE
350
84
  3
DIMASSOC
350
5F
  3
HIDETEXT
350
63
  3
INDEXCTL
350
853
  3
PSOLHEIGHT
350
855
  3
PSOLWIDTH
350
854
  3
SORTENTS
350
852
  0
XRECORD
  5
856
102
{ACAD_REACTORS
330
C
102
}
330
C
100
AcDbXrecord
280
     1
  1
DWGPROPS COOKIE
  2

  3

  4

  6

  7

  8
オーナー
  9

300
=
301
=
302
=
303
=
304
=
305
=
306
=
307
=
308
=
309
=
 40
0.0001822916666667
 41
2456987.671686551
 42
2456987.671865405
  1

 90
        0
  0
DICTIONARY
  5
298
102
{ACAD_REACTORS
330
297
102
}
330
297
100
AcDbDictionary
281
     1
  0
DIMASSOC
  5
590
102
{ACAD_REACTORS
330
58F
102
}
330
58F
100
AcDbDimAssoc
330
58E
 90
        1
 70
     0
 71
     0
  1
AcDbOsnapPointRef
 72
    13
331
4C7
 73
     2
 91
        0
 40
0.0
 10
0.0
 20
0.0
 30
2.000000000000000E+50
 75
     0
  0
DIMASSOC
  5
5C2
102
{ACAD_REACTORS
330
5C1
102
}
330
5C1
100
AcDbDimAssoc
330
5C0
 90
        2
 70
     0
 71
     0
  1
AcDbOsnapPointRef
 72
    13
331
4B7
 73
     2
 91
        0
 40
0.0
 10
0.0
 20
0.0
 30
2.000000000000000E+50
 75
     0
  0
DIMASSOC
  5
5C5
102
{ACAD_REACTORS
330
5C4
102
}
330
5C4
100
AcDbDimAssoc
330
5C3
 90
        3
 70
     0
 71
     0
  1
AcDbOsnapPointRef
 72
     1
331
49C
 73
     2
 91
        0
 40
1.0
 10
0.0
 20
0.0
 30
2.000000000000000E+50
 75
     0
  1
AcDbOsnapPointRef
 72
     5
331
4A0
 73
     2
 91
        0
 40
3.141592653589793
 10
0.0
 20
0.0
 30
0.0
 75
     0
  0
DIMASSOC
  5
5C8
102
{ACAD_REACTORS
330
5C7
102
}
330
5C7
100
AcDbDimAssoc
330
5C6
 90
        1
 70
     0
 71
     0
  1
AcDbOsnapPointRef
 72
     3
331
4A0
 73
     2
 91
        0
 40
0.0
 10
0.0
 20
0.0
 30
0.0
 75
     0
  0
DIMASSOC
  5
5CE
102
{ACAD_REACTORS
330
5CD
102
}
330
5CD
100
AcDbDimAssoc
330
5CC
 90
        3
 70
     0
 71
     0
  1
AcDbOsnapPointRef
 72
    13
331
49C
 73
     2
 91
        0
 40
0.0
 10
0.0
 20
0.0
 30
2.000000000000000E+50
 75
     0
  1
AcDbOsnapPointRef
 72
    13
331
49D
 73
     2
 91
        0
 40
0.0
 10
0.0
 20
0.0
 30
2.000000000000000E+50
 75
     0
  0
DIMASSOC
  5
5D1
102
{ACAD_REACTORS
330
5D0
102
}
330
5D0
100
AcDbDimAssoc
330
5CF
 90
        2
 70
     0
 71
     0
  1
AcDbOsnapPointRef
 72
     1
331
49A
 73
     2
 91
        0
 40
1.0
 10
0.0
 20
0.0
 30
2.000000000000000E+50
 75
     0
  0
DIMASSOC
  5
5D4
102
{ACAD_REACTORS
330
5D3
102
}
330
5D3
100
AcDbDimAssoc
330
5D2
 90
        2
 70
     0
 71
     0
  1
AcDbOsnapPointRef
 72
     3
331
47E
 73
     2
 91
        0
 40
0.0
 10
0.0
 20
0.0
 30
0.0
 75
     0
  0
DIMASSOC
  5
5D9
102
{ACAD_REACTORS
330
5D8
102
}
330
5D8
100
AcDbDimAssoc
330
5D7
 90
        3
 70
     0
 71
     0
  1
AcDbOsnapPointRef
 72
     1
331
497
 73
     2
 91
        0
 40
4.712388980384689
 10
0.0
 20
0.0
 30
2.000000000000000E+50
 75
     0
  1
AcDbOsnapPointRef
 72
     3
331
481
 73
     2
 91
        0
 40
0.0
 10
0.0
 20
0.0
 30
0.0
 75
     0
  0
DIMASSOC
  5
5DC
102
{ACAD_REACTORS
330
5DB
102
}
330
5DB
100
AcDbDimAssoc
330
5DA
 90
        2
 70
     0
 71
     0
  1
AcDbOsnapPointRef
 72
     3
331
480
 73
     2
 91
        0
 40
0.0
 10
0.0
 20
0.0
 30
0.0
 75
     0
  0
DIMASSOC
  5
5DF
102
{ACAD_REACTORS
330
5DE
102
}
330
5DE
100
AcDbDimAssoc
330
5DD
 90
        2
 70
     0
 71
     0
  1
AcDbOsnapPointRef
 72
     3
331
47F
 73
     2
 91
        0
 40
0.0
 10
0.0
 20
0.0
 30
0.0
 75
     0
  0
DIMASSOC
  5
5E2
102
{ACAD_REACTORS
330
5E1
102
}
330
5E1
100
AcDbDimAssoc
330
5E0
 90
       15
 70
     0
 71
     0
  1
AcDbOsnapPointRef
 72
    13
331
544
 73
     2
 91
        0
 40
0.0
 10
0.0
 20
0.0
 30
2.000000000000000E+50
 75
     0
  1
AcDbOsnapPointRef
 72
     1
331
544
 73
     2
 91
        0
 40
1.0
 10
0.0
 20
0.0
 30
2.000000000000000E+50
 75
     0
  1
AcDbOsnapPointRef
 72
    13
331
525
 73
     2
 91
        0
 40
0.0
 10
0.0
 20
0.0
 30
2.000000000000000E+50
 75
     0
  1
AcDbOsnapPointRef
 72
     1
331
525
 73
     2
 91
        0
 40
1.0
 10
0.0
 20
0.0
 30
2.000000000000000E+50
 75
     0
  0
DIMASSOC
  5
5E5
102
{ACAD_REACTORS
330
5E4
102
}
330
5E4
100
AcDbDimAssoc
330
5E3
 90
        3
 70
     0
 71
     0
  1
AcDbOsnapPointRef
 72
    13
331
52C
 73
     2
 91
        0
 40
0.0
 10
0.0
 20
0.0
 30
2.000000000000000E+50
 75
     0
  1
AcDbOsnapPointRef
 72
    13
331
546
 73
     2
 91
        0
 40
0.0
 10
0.0
 20
0.0
 30
2.000000000000000E+50
 75
     0
  0
DIMASSOC
  5
5EB
102
{ACAD_REACTORS
330
5EA
102
}
330
5EA
100
AcDbDimAssoc
330
5E9
 90
        2
 70
     0
 71
     0
  1
AcDbOsnapPointRef
 72
     3
331
5CB
 73
     2
 91
        0
 40
0.0
 10
0.0
 20
0.0
 30
0.0
 75
     0
  0
DIMASSOC
  5
5F0
102
{ACAD_REACTORS
330
5EF
102
}
330
5EF
100
AcDbDimAssoc
330
5EE
 90
        3
 70
     0
 71
     0
  1
AcDbOsnapPointRef
 72
     1
331
496
 73
     2
 91
        0
 40
6.283185307179586
 10
0.0
 20
0.0
 30
2.000000000000000E+50
 75
     0
  1
AcDbOsnapPointRef
 72
    13
331
497
 73
     2
 91
        0
 40
3.141592653589793
 10
0.0
 20
0.0
 30
2.000000000000000E+50
 75
     0
  0
DIMASSOC
  5
637
102
{ACAD_REACTORS
330
636
102
}
330
636
100
AcDbDimAssoc
330
635
 90
       15
 70
     0
 71
     0
  1
AcDbOsnapPointRef
 72
    13
331
633
 73
     2
 91
        0
 40
0.0
 10
0.0
 20
0.0
 30
2.000000000000000E+50
 75
     0
  1
AcDbOsnapPointRef
 72
     1
331
633
 73
     2
 91
        0
 40
1.0
 10
0.0
 20
0.0
 30
2.000000000000000E+50
 75
     0
  1
AcDbOsnapPointRef
 72
    13
331
634
 73
     2
 91
        0
 40
0.0
 10
0.0
 20
0.0
 30
2.000000000000000E+50
 75
     0
  1
AcDbOsnapPointRef
 72
     1
331
634
 73
     2
 91
        0
 40
1.0
 10
0.0
 20
0.0
 30
2.000000000000000E+50
 75
     0
  0
LAYOUT
  5
22
102
{ACAD_XDICTIONARY
360
857
102
}
102
{ACAD_REACTORS
330
1A
102
}
330
1A
100
AcDbPlotSettings
  1

  2
none_device
  4
ISO_A4_(210.00_x_297.00_MM)
  6

 40
7.5
 41
20.0
 42
7.5
 43
20.0
 44
210.0
 45
297.0
 46
11.54999923706054
 47
-13.65000009536743
 48
0.0
 49
0.0
140
0.0
141
0.0
142
1.0
143
8.704084754739808
 70
 11952
 72
     1
 73
     0
 74
     0
  7

 75
     0
147
0.1148885871608098
148
0.0
149
0.0
100
AcDbLayout
  1
Model
 70
     1
 71
     0
 10
0.0
 20
0.0
 11
12.0
 21
9.0
 12
0.0
 22
0.0
 32
0.0
 14
0.0
 24
0.0
 34
0.0
 15
0.0
 25
0.0
 35
0.0
146
0.0
 13
0.0
 23
0.0
 33
0.0
 16
1.0
 26
0.0
 36
0.0
 17
0.0
 27
1.0
 37
0.0
 76
     0
330
1F
331
ED
1001
ACAD_PSEXT
1000
None
1000
None
1000
Not applicable
1000
The layout will not be plotted unless a new plotter configuration name is selected.
1070
     0
  0
LAYOUT
  5
D3
102
{ACAD_XDICTIONARY
360
85B
102
}
102
{ACAD_REACTORS
330
1A
102
}
330
1A
100
AcDbPlotSettings
  1

  2
C:\Documents and Settings\basas\Application Data\Autodesk\AutoCAD 2005\R16.1\enu\plotters\Default Windows System Printer.pc3
  4

  6

 40
0.0
 41
0.0
 42
0.0
 43
0.0
 44
0.0
 45
0.0
 46
0.0
 47
0.0
 48
0.0
 49
0.0
140
0.0
141
0.0
142
1.0
143
1.0
 70
   688
 72
     0
 73
     0
 74
     5
  7

 75
    16
147
1.0
148
0.0
149
0.0
100
AcDbLayout
  1
レイアウト1
 70
     1
 71
     1
 10
0.0
 20
0.0
 11
12.0
 21
9.0
 12
0.0
 22
0.0
 32
0.0
 14
0.0
 24
0.0
 34
0.0
 15
0.0
 25
0.0
 35
0.0
146
0.0
 13
0.0
 23
0.0
 33
0.0
 16
1.0
 26
0.0
 36
0.0
 17
0.0
 27
1.0
 37
0.0
 76
     0
330
D2
  0
LAYOUT
  5
D7
102
{ACAD_XDICTIONARY
360
85D
102
}
102
{ACAD_REACTORS
330
1A
102
}
330
1A
100
AcDbPlotSettings
  1

  2
C:\Documents and Settings\basas\Application Data\Autodesk\AutoCAD 2005\R16.1\enu\plotters\Default Windows System Printer.pc3
  4

  6

 40
0.0
 41
0.0
 42
0.0
 43
0.0
 44
0.0
 45
0.0
 46
0.0
 47
0.0
 48
0.0
 49
0.0
140
0.0
141
0.0
142
1.0
143
1.0
 70
   688
 72
     0
 73
     0
 74
     5
  7

 75
    16
147
1.0
148
0.0
149
0.0
100
AcDbLayout
  1
レイアウト2
 70
     1
 71
     2
 10
0.0
 20
0.0
 11
12.0
 21
9.0
 12
0.0
 22
0.0
 32
0.0
 14
0.0
 24
0.0
 34
0.0
 15
0.0
 25
0.0
 35
0.0
146
0.0
 13
0.0
 23
0.0
 33
0.0
 16
1.0
 26
0.0
 36
0.0
 17
0.0
 27
1.0
 37
0.0
 76
     0
330
D6
  0
MATERIAL
  5
F0
102
{ACAD_XDICTIONARY
360
861
102
}
102
{ACAD_REACTORS
330
6A
102
}
330
6A
100
AcDbMaterial
  1
ByBlock
  0
MATERIAL
  5
EF
102
{ACAD_XDICTIONARY
360
85F
102
}
102
{ACAD_REACTORS
330
6A
102
}
330
6A
100
AcDbMaterial
  1
ByLayer
  0
MATERIAL
  5
F1
102
{ACAD_XDICTIONARY
360
863
102
}
102
{ACAD_REACTORS
330
6A
102
}
330
6A
100
AcDbMaterial
  1
Global
  0
MLINESTYLE
  5
18
102
{ACAD_REACTORS
330
17
102
}
330
17
100
AcDbMlineStyle
  2
STANDARD
 70
     0
  3

 62
   256
 51
90.0
 52
90.0
 71
     2
 49
0.5
 62
   256
  6
BYLAYER
 49
-0.5
 62
   256
  6
BYLAYER
  0
ACDBPLACEHOLDER
  5
F
102
{ACAD_REACTORS
330
E
102
}
330
E
  0
TABLESTYLE
  5
7F
102
{ACAD_XDICTIONARY
360
859
102
}
102
{ACAD_REACTORS
330
7E
102
}
330
7E
100
AcDbTableStyle
  3
Standard
 70
     0
 71
     0
 40
1.5
 41
1.5
280
     0
281
     0
  7
Standard
140
4.5
170
     2
 62
     0
 63
     7
283
     0
274
    -2
284
     1
 64
     0
275
    -2
285
     1
 65
     0
276
    -2
286
     1
 66
     0
277
    -2
287
     1
 67
     0
278
    -2
288
     1
 68
     0
279
    -2
289
     1
 69
     0
  7
Standard
140
6.0
170
     5
 62
     0
 63
     7
283
     0
274
    -2
284
     1
 64
     0
275
    -2
285
     1
 65
     0
276
    -2
286
     1
 66
     0
277
    -2
287
     1
 67
     0
278
    -2
288
     1
 68
     0
279
    -2
289
     1
 69
     0
  7
Standard
140
4.5
170
     5
 62
     0
 63
     7
283
     0
274
    -2
284
     1
 64
     0
275
    -2
285
     1
 65
     0
276
    -2
286
     1
 66
     0
277
    -2
287
     1
 67
     0
278
    -2
288
     1
 68
     0
279
    -2
289
     1
 69
     0
  0
VISUALSTYLE
  5
F8
102
{ACAD_REACTORS
330
F2
102
}
330
F2
100
AcDbVisualStyle
  2
2dWireframe
 70
     4
 71
     0
 72
     2
 73
     1
 90
        0
 40
-0.6
 41
-30.0
 62
     5
 63
     7
 74
     1
 91
        4
 64
     7
 65
   257
 75
     1
175
     1
 42
1.0
 92
        0
 66
   257
 43
1.0
 76
     1
 77
     6
 78
     2
 67
     7
 79
     5
170
     0
171
     0
290
     0
174
     0
 93
        1
 44
0.0
173
     0
291
     0
 45
0.0
1001
ACAD
1000
AcDbSavedByObjectVersion
1070
     0
  0
VISUALSTYLE
  5
FA
102
{ACAD_REACTORS
330
F2
102
}
330
F2
100
AcDbVisualStyle
  2
3D Hidden
 70
     6
 71
     1
 72
     2
 73
     2
 90
        0
 40
-0.6
 41
-30.0
 62
     5
 63
     7
 74
     2
 91
        2
 64
     7
 65
   257
 75
     2
175
     1
 42
40.0
 92
        0
 66
   257
 43
1.0
 76
     1
 77
     6
 78
     2
 67
     7
 79
     3
170
     0
171
     0
290
     0
174
     0
 93
        1
 44
0.0
173
     0
291
     0
 45
0.0
1001
ACAD
1000
AcDbSavedByObjectVersion
1070
     0
  0
VISUALSTYLE
  5
F9
102
{ACAD_REACTORS
330
F2
102
}
330
F2
100
AcDbVisualStyle
  2
3dWireframe
 70
     5
 71
     0
 72
     2
 73
     1
 90
        0
 40
-0.6
 41
-30.0
 62
     5
 63
     7
 74
     1
 91
        4
 64
     7
 65
   257
 75
     1
175
     1
 42
1.0
 92
        0
 66
   257
 43
1.0
 76
     1
 77
     6
 78
     2
 67
     7
 79
     5
170
     0
171
     0
290
     0
174
     0
 93
        1
 44
0.0
173
     0
291
     0
 45
0.0
1001
ACAD
1000
AcDbSavedByObjectVersion
1070
     0
  0
VISUALSTYLE
  5
F7
102
{ACAD_REACTORS
330
F2
102
}
330
F2
100
AcDbVisualStyle
  2
Basic
 70
     7
 71
     1
 72
     0
 73
     1
 90
        0
 40
-0.6
 41
-30.0
 62
     5
 63
     7
 74
     0
 91
        4
 64
     7
 65
   257
 75
     1
175
     1
 42
1.0
 92
        8
 66
     7
 43
1.0
 76
     1
 77
     6
 78
     2
 67
     7
 79
     5
170
     0
171
     0
290
     0
174
     0
 93
        1
 44
0.0
173
     0
291
     1
 45
0.0
1001
ACAD
1000
AcDbSavedByObjectVersion
1070
     0
  0
VISUALSTYLE
  5
FE
102
{ACAD_REACTORS
330
F2
102
}
330
F2
100
AcDbVisualStyle
  2
Brighten
 70
    12
 71
     2
 72
     2
 73
     1
 90
        0
 40
-0.6
 41
-30.0
 62
     5
 63
     7
 74
     1
 91
        4
 64
     7
 65
   257
 75
     1
175
     1
 42
1.0
 92
        8
 66
     7
 43
1.0
 76
     1
 77
     6
 78
     2
 67
     7
 79
     5
170
     0
171
     0
290
     0
174
     0
 93
        1
 44
50.0
173
     0
291
     1
 45
0.0
1001
ACAD
1000
AcDbSavedByObjectVersion
1070
     0
  0
VISUALSTYLE
  5
102
102
{ACAD_REACTORS
330
F2
102
}
330
F2
100
AcDbVisualStyle
  2
ColorChange
 70
    16
 71
     2
 72
     2
 73
     3
 90
        0
 40
-0.6
 41
-30.0
 62
     5
 63
     8
 74
     1
 91
        4
 64
     7
 65
   257
 75
     1
175
     1
 42
1.0
 92
        8
 66
     8
 43
1.0
 76
     1
 77
     6
 78
     2
 67
     7
 79
     5
170
     0
171
     0
290
     0
174
     0
 93
        1
 44
0.0
173
     0
291
     1
 45
0.0
1001
ACAD
1000
AcDbSavedByObjectVersion
1070
     0
  0
VISUALSTYLE
  5
FB
102
{ACAD_REACTORS
330
F2
102
}
330
F2
100
AcDbVisualStyle
  2
Conceptual
 70
     9
 71
     3
 72
     2
 73
     1
 90
        0
 40
-0.6
 41
-30.0
 62
     5
 63
     7
 74
     2
 91
        2
 64
     7
 65
   257
 75
     1
175
     1
 42
40.0
 92
        8
 66
     7
 43
1.0
 76
     1
 77
     6
 78
     2
 67
     7
 79
     3
170
     0
171
     0
290
     0
174
     0
 93
        1
 44
0.0
173
     0
291
     0
 45
0.0
1001
ACAD
1000
AcDbSavedByObjectVersion
1070
     0
  0
VISUALSTYLE
  5
FD
102
{ACAD_REACTORS
330
F2
102
}
330
F2
100
AcDbVisualStyle
  2
Dim
 70
    11
 71
     2
 72
     2
 73
     1
 90
        0
 40
-0.6
 41
-30.0
 62
     5
 63
     7
 74
     1
 91
        4
 64
     7
 65
   257
 75
     1
175
     1
 42
1.0
 92
        8
 66
     7
 43
1.0
 76
     1
 77
     6
 78
     2
 67
     7
 79
     5
170
     0
171
     0
290
     0
174
     0
 93
        1
 44
-50.0
173
     0
291
     1
 45
0.0
1001
ACAD
1000
AcDbSavedByObjectVersion
1070
     0
  0
VISUALSTYLE
  5
101
102
{ACAD_REACTORS
330
F2
102
}
330
F2
100
AcDbVisualStyle
  2
Facepattern
 70
    15
 71
     2
 72
     2
 73
     1
 90
        0
 40
-0.6
 41
-30.0
 62
     5
 63
     7
 74
     1
 91
        4
 64
     7
 65
   257
 75
     1
175
     1
 42
1.0
 92
        8
 66
     7
 43
1.0
 76
     1
 77
     6
 78
     2
 67
     7
 79
     5
170
     0
171
     0
290
     0
174
     0
 93
        1
 44
0.0
173
     0
291
     1
 45
0.0
1001
ACAD
1000
AcDbSavedByObjectVersion
1070
     0
  0
VISUALSTYLE
  5
F3
102
{ACAD_REACTORS
330
F2
102
}
330
F2
100
AcDbVisualStyle
  2
Flat
 70
     0
 71
     2
 72
     1
 73
     1
 90
        2
 40
-0.6
 41
30.0
 62
     5
 63
     7
 74
     0
 91
        4
 64
     7
 65
   257
 75
     1
175
     1
 42
1.0
 92
        8
 66
     7
 43
1.0
 76
     1
 77
     6
 78
     2
 67
     7
 79
     5
170
     0
171
     0
290
     0
174
     0
 93
       13
 44
0.0
173
     0
291
     1
 45
0.0
1001
ACAD
1000
AcDbSavedByObjectVersion
1070
     0
  0
VISUALSTYLE
  5
F4
102
{ACAD_REACTORS
330
F2
102
}
330
F2
100
AcDbVisualStyle
  2
FlatWithEdges
 70
     1
 71
     2
 72
     1
 73
     1
 90
        2
 40
-0.6
 41
30.0
 62
     5
 63
     7
 74
     1
 91
        4
 64
     7
 65
   257
 75
     1
175
     1
 42
1.0
 92
        0
 66
   257
 43
1.0
 76
     1
 77
     6
 78
     2
 67
     7
 79
     5
170
     0
171
     0
290
     0
174
     0
 93
       13
 44
0.0
173
     0
291
     1
 45
0.0
1001
ACAD
1000
AcDbSavedByObjectVersion
1070
     0
  0
VISUALSTYLE
  5
F5
102
{ACAD_REACTORS
330
F2
102
}
330
F2
100
AcDbVisualStyle
  2
Gouraud
 70
     2
 71
     2
 72
     2
 73
     1
 90
        2
 40
-0.6
 41
30.0
 62
     5
 63
     7
 74
     0
 91
        4
 64
     7
 65
   257
 75
     1
175
     1
 42
1.0
 92
        0
 66
     7
 43
1.0
 76
     1
 77
     6
 78
     2
 67
     7
 79
     5
170
     0
171
     0
290
     0
174
     0
 93
       13
 44
0.0
173
     0
291
     1
 45
0.0
1001
ACAD
1000
AcDbSavedByObjectVersion
1070
     0
  0
VISUALSTYLE
  5
F6
102
{ACAD_REACTORS
330
F2
102
}
330
F2
100
AcDbVisualStyle
  2
GouraudWithEdges
 70
     3
 71
     2
 72
     2
 73
     1
 90
        2
 40
-0.6
 41
30.0
 62
     5
 63
     7
 74
     1
 91
        4
 64
     7
 65
   257
 75
     1
175
     1
 42
1.0
 92
        0
 66
   257
 43
1.0
 76
     1
 77
     6
 78
     2
 67
     7
 79
     5
170
     0
171
     0
290
     0
174
     0
 93
       13
 44
0.0
173
     0
291
     1
 45
0.0
1001
ACAD
1000
AcDbSavedByObjectVersion
1070
     0
  0
VISUALSTYLE
  5
100
102
{ACAD_REACTORS
330
F2
102
}
330
F2
100
AcDbVisualStyle
  2
Linepattern
 70
    14
 71
     2
 72
     2
 73
     1
 90
        0
 40
-0.6
 41
-30.0
 62
     5
 63
     7
 74
     1
 91
        4
 64
     7
 65
   257
 75
     7
175
     7
 42
1.0
 92
        8
 66
     7
 43
1.0
 76
     1
 77
     6
 78
     2
 67
     7
 79
     5
170
     0
171
     0
290
     0
174
     0
 93
        1
 44
0.0
173
     0
291
     1
 45
0.0
1001
ACAD
1000
AcDbSavedByObjectVersion
1070
     0
  0
VISUALSTYLE
  5
FC
102
{ACAD_REACTORS
330
F2
102
}
330
F2
100
AcDbVisualStyle
  2
Realistic
 70
     8
 71
     2
 72
     2
 73
     1
 90
        0
 40
-0.6
 41
-30.0
 62
     5
 63
     7
 74
     1
 91
        0
 64
     7
 65
   257
 75
     1
175
     1
 42
1.0
 92
        8
 66
     8
 43
1.0
 76
     1
 77
     6
 78
     2
 67
     7
 79
     5
170
     0
171
     0
290
     0
174
     0
 93
       13
 44
0.0
173
     0
291
     0
 45
0.0
1001
ACAD
1000
AcDbSavedByObjectVersion
1070
     0
  0
VISUALSTYLE
  5
FF
102
{ACAD_REACTORS
330
F2
102
}
330
F2
100
AcDbVisualStyle
  2
Thicken
 70
    13
 71
     2
 72
     2
 73
     1
 90
        0
 40
-0.6
 41
-30.0
 62
     5
 63
     7
 74
     1
 91
        4
 64
     7
 65
   257
 75
     1
175
     1
 42
1.0
 92
       12
 66
     7
 43
1.0
 76
     1
 77
     6
 78
     2
 67
     7
 79
     5
170
     0
171
     0
290
     0
174
     0
 93
        1
 44
0.0
173
     0
291
     1
 45
0.0
1001
ACAD
1000
AcDbSavedByObjectVersion
1070
     0
  0
DICTIONARYVAR
  5
84
102
{ACAD_REACTORS
330
5E
102
}
330
5E
100
DictionaryVariables
280
     0
  1
STANDARD
  0
DICTIONARYVAR
  5
5F
102
{ACAD_REACTORS
330
5E
102
}
330
5E
100
DictionaryVariables
280
     0
  1
2
  0
DICTIONARYVAR
  5
63
102
{ACAD_REACTORS
330
5E
102
}
330
5E
100
DictionaryVariables
280
     0
  1
1
  0
DICTIONARYVAR
  5
853
102
{ACAD_REACTORS
330
5E
102
}
330
5E
100
DictionaryVariables
280
     0
  1
0
  0
DICTIONARYVAR
  5
855
102
{ACAD_REACTORS
330
5E
102
}
330
5E
100
DictionaryVariables
280
     0
  1
80.000000
  0
DICTIONARYVAR
  5
854
102
{ACAD_REACTORS
330
5E
102
}
330
5E
100
DictionaryVariables
280
     0
  1
5.000000
  0
DICTIONARYVAR
  5
852
102
{ACAD_REACTORS
330
5E
102
}
330
5E
100
DictionaryVariables
280
     0
  1
127
  0
DICTIONARY
  5
857
330
22
100
AcDbDictionary
280
     1
281
     1
  3
ACAD_XREC_ROUNDTRIP
360
858
  0
DICTIONARY
  5
85B
330
D3
100
AcDbDictionary
280
     1
281
     1
  3
ACAD_XREC_ROUNDTRIP
360
85C
  0
DICTIONARY
  5
85D
330
D7
100
AcDbDictionary
280
     1
281
     1
  3
ACAD_XREC_ROUNDTRIP
360
85E
  0
DICTIONARY
  5
861
330
F0
100
AcDbDictionary
280
     1
281
     1
  3
ACAD_XREC_ROUNDTRIP
360
862
  0
DICTIONARY
  5
85F
330
EF
100
AcDbDictionary
280
     1
281
     1
  3
ACAD_XREC_ROUNDTRIP
360
860
  0
DICTIONARY
  5
863
330
F1
100
AcDbDictionary
280
     1
281
     1
  3
ACAD_XREC_ROUNDTRIP
360
864
  0
DICTIONARY
  5
859
330
7F
100
AcDbDictionary
280
     1
281
     1
  3
ACAD_XREC_ROUNDTRIP
360
85A
  0
XRECORD
  5
858
102
{ACAD_REACTORS
330
857
102
}
330
857
100
AcDbXrecord
280
     1
102
SHADEPLOT
 70
     0
102
SHADEPLOTRESLEVEL
 70
     2
102
SHADEPLOTCUSTOMDPI
 70
   300
  0
XRECORD
  5
85C
102
{ACAD_REACTORS
330
85B
102
}
330
85B
100
AcDbXrecord
280
     1
102
SHADEPLOT
 70
     0
102
SHADEPLOTRESLEVEL
 70
     2
102
SHADEPLOTCUSTOMDPI
 70
   300
  0
XRECORD
  5
85E
102
{ACAD_REACTORS
330
85D
102
}
330
85D
100
AcDbXrecord
280
     1
102
SHADEPLOT
 70
     0
102
SHADEPLOTRESLEVEL
 70
     2
102
SHADEPLOTCUSTOMDPI
 70
   300
  0
XRECORD
  5
862
102
{ACAD_REACTORS
330
861
102
}
330
861
100
AcDbXrecord
280
     1
102
MATERIAL
148
0.0
149
0.0
149
0.0
 93
        0
 94
       63
282
     0
 72
     1
 77
     1
171
     1
175
     1
179
     1
273
     0
  0
XRECORD
  5
860
102
{ACAD_REACTORS
330
85F
102
}
330
85F
100
AcDbXrecord
280
     1
102
MATERIAL
148
0.0
149
0.0
149
0.0
 93
        0
 94
       63
282
     0
 72
     1
 77
     1
171
     1
175
     1
179
     1
273
     0
  0
XRECORD
  5
864
102
{ACAD_REACTORS
330
863
102
}
330
863
100
AcDbXrecord
280
     1
102
MATERIAL
148
0.0
149
0.0
149
0.0
 93
        0
 94
       63
282
     0
 72
     1
 77
     1
171
     1
175
     1
179
     1
273
     0
  0
XRECORD
  5
85A
102
{ACAD_REACTORS
330
859
102
}
330
859
100
AcDbXrecord
280
     1
102
ACAD_ROUNDTRIP_PRE2007_TABLESTYLE
 90
      512
 91
        0
  1

 92
      512
 93
        0
  2

 94
      512
 95
        0
  3

  0
ENDSEC
  0
EOF
